imdb
rating

6.5
The Lucky One

The Lucky One (2012)

Drama, Romance

Full description
quality   dvdr telesync dvdrip cam bd

The Lucky One (2012) DVDRip XviD-MAXSPEED

Size 902.684 MB   0 seeders     Added 2012-04-13 02:53:00

Stream torrent
Starting‥ You need BitLord! Get it from BitLord.com
To download or stream you need BitLord. Visit them at BitLord.com
Format                           : AVI\r\nFormat/Info                      : Audio Video Interleave\r\nFormat profile                   : OpenDML\r\nFile size                        : 860 MiB\r\nDuration                         : 1h 49mn\r\nOverall bit rate                 : 1 714 Kbps\r\nWriting application              : VirtualDubMod 1.5.10.2 (build 2542/release)\r\nWriting library                  : VirtualDubMod build 2542/release\r\nOriginal source form             : MAX TORRENTZ\r\n\r\nVideo\r\nID                               : 0\r\nFormat                           : MPEG-4 Visual\r\nFormat profile                   : AdvancedSimple@L5\r\nFormat settings, BVOP            : Yes\r\nFormat settings, QPel            : No\r\nFormat settings, GMC             : No warppoints\r\nFormat settings, Matrix          : Default (H.263)\r\nCodec ID                         : XVID\r\nCodec ID/Hint                    : XviD\r\nDuration                         : 1h 49mn\r\nBit rate                         : 1 325 Kbps\r\nWidth                            : 640 pixels\r\nHeight                           : 272 pixels\r\nDisplay aspect ratio             : 2.35:1\r\nFrame rate                       : 23.976 fps\r\nResolution                       : 24 bits\r\nColorimetry                      : 4:2:0\r\nScan type                        : Progressive\r\nBits/(Pixel*Frame)               : 0.318\r\nStream size                      : 860 MiB (77%)\r\nWriting library                  : XviD 61\r\n\r\nAudio\r\nID                               : 1\r\nFormat                           : AC-3\r\nFormat/Info                      : Audio Coding 3\r\nCodec ID                         : 2000\r\nDuration                         : 1h 49mn\r\nBit rate mode                    : Constant\r\nBit rate                         : 384 Kbps\r\nChannel(s)                       : 6 channels\r\nChannel positions                : Front: L C R, Surround: L R, LFE\r\nSampling rate                    : 48.0 KHz\r\nStream size                      : 147 MiB (22%)\r\nAlignment                        : Aligned on interleaves\r\nInterleave, duration             : 64 ms (1.54 video frames)\r\nInterleave, preload duration     : 192 ms\r\n\r\n\r\nhttp://www.imdb.com/title/tt1327194/\r\n\r\n\r\nThe Lucky One (2012)\r\n\r\n\r\nHow To Get Your Maxspeed (uTorrent)\r\n\r\nTorrent Client - Preferences - Bandwidth - Number of connections - Set aprox. 500 for each \r\nTorrent Client - Preferences - BiTorrent - Protocol Encryption - Forced\r\nBandwidth Allocation - High (Set download/upload limit - Unlimited)\r\nStop Other Active Torrents - Start downloading and wait for connections.\r\nEnjoy and Seed for at least 1:1 ratio. Don't forget to say thanks/leave reviews.\r\nBefore downloading you should check/google search sample \"release name\"\"sample\".\r\nGreets to all actual/future p2p/scene QUALITY groups and affiliate websites.\r\nDon't trust IMDb robot or bad ratings,always watch some trailers first.\r\nIgnore stupid comments/fake/mislabeled/no-DVDrips/CAM/TS/RAR uploads.\r\nPlease spread this release/torrent to your friends/forums/etc.\r\nIf you need translation subs visit some subtitles sites.\r\nReport if you see online streaming or other spam links.\r\nRecommended movie player VLC PLAYER.
Release.nfo 10.131 KB
The Lucky One (2012) DVDRip XviD-MAXSPEED.avi 902.673 MB
Torrent downloaded from AhaShare.com.txt 58 B
Gathering some info...

Register and log in Isohunt and see no captcha anymore!

4000 symbols left
Hash 9FDE2028E3257CAA959A36A7A042131155E31DF6

Related torrents for "The Lucky One (2012) DVDRip XviD-MAXSPEED"

Torrent search:

dvdrip 2012