imdb
rating

5.9
Battleship

Battleship (2012)

Action, Adventure, Science Fiction, Thriller

Full description

Battleship 2012 720p BluRay x264 SPARKS PublicHD ORG

Size 801.098 MB   0 seeders     Added 2012-04-13 03:00:25

Stream torrent
Starting‥ You need BitLord! Get it from BitLord.com
To download or stream you need BitLord. Visit them at BitLord.com
Greetz:\r\nXtreme \r\n\r\nEncode|FYA|ILLUMANTI|CM8|RX|VISION|HDSCENE|NIGHTMAREZ|xTriLL|DTRG|CRYS|REMIXHD|BIDA|\r\n\r\nRX|REFILL|INSPiRAL|SIC|HOPE|Anonymous|GooN|P76|MIRAGE|ESCA|KoDeKinG\r\n\r\n\r\n\r\n\r\nFormat                                   : AVI\r\n\r\nFormat/Info                              : Audio Video Interleave\r\n\r\nFile size                                : 850 MB\r\n\r\nDuration                                 : 2h 7mn\r\n\r\nOverall bit rate                         : 874 Kbps\r\n\r\nWriting application                      : VirtualDubMod 1.5.10.2 (build 2542/release)\r\n\r\nWriting library                          : VirtualDubMod build 2542/release\r\n\r\n\r\n\r\nVideo:\r\n\r\n\r\n\r\nID                                       : 0\r\n\r\nFormat                                   : MPEG-4 Visual\r\n\r\nFormat profile                           : Advanced Simple@L5\r\n\r\nFormat settings, BVOP                    : 1\r\n\r\nFormat settings, QPel                    : No\r\n\r\nFormat settings, GMC                     : No warppoints\r\n\r\nFormat settings, Matrix                  : Default (H.263)\r\n\r\nMuxing mode                              : Packed bitstream\r\n\r\nCodec ID                                 : XVID\r\n\r\nCodec ID/Hint                            : XviD\r\n\r\nDuration                                 : 2h 7mn\r\n\r\nBit rate                                 : 737 Kbps\r\n\r\nWidth                                    : 704 pixels\r\n\r\nHeight                                   : 296 pixels\r\n\r\nDisplay aspect ratio                     : 2.40:1\r\n\r\nFrame rate                               : 23.976 fps\r\n\r\nColor space                              : YUV\r\n\r\nChroma subsampling                       : 4:2:0\r\n\r\nBit depth                                : 8 bits\r\n\r\nScan type                                : Progressive\r\n\r\nCompression mode                         : Lossy\r\n\r\nBits/(Pixel*Frame)                       : 0.147\r\n\r\nStream size                              : 700 MiB (84%)\r\n\r\nWriting library                          : XviD 62\r\n\r\n\r\n\r\nAudio:\r\n\r\n\r\n\r\nID                                       : 1\r\n\r\nFormat                                   : MPEG Audio\r\n\r\nFormat version                           : Version 1\r\n\r\nFormat profile                           : Layer 3\r\n\r\nMode                                     : Joint stereo\r\n\r\nMode extension                           : MS Stereo\r\n\r\nCodec ID                                 : 55\r\n\r\nCodec ID/Hint                            : MP3\r\n\r\nDuration                                 : 2h 7mn\r\n\r\nBit rate mode                            : Constant\r\n\r\nBit rate                                 : 128 Kbps\r\n\r\nChannel(s)                               : 2 channels\r\n\r\nSampling rate                            : 44.1 KHz\r\n\r\nCompression mode                         : Lossy\r\n\r\nStream size                              : 82.6 MiB (15%)\r\n\r\nAlignment                                : Split accross interleaves\r\n\r\nInterleave, duration                     : 42 ms (1.00 video frame)\r\n\r\nInterleave, preload duration             : 500 ms\r\n\r\nWriting library                          : LAME3.98.2
Battleship 2012 720p BluRay x264 SPARKS PublicHD ORG.avi 800.961 MB
Subs[ENG].srt 136.693 KB
Torrent downloaded from Rarbg.com.txt 22 B
Gathering some info...

Register and log in Isohunt and see no captcha anymore!

4000 symbols left
Hash 179090EC04E85A090895F6FA17B8CFF18FC9FE8E

Related torrents for "Battleship 2012 720p BluRay x264 SPARKS PublicHD ORG"

Torrent search:

x264 hd 2012 bd