Tiziano Ferro - La Differenza Tra Me E Te (h264mp4)

Size 63.524 MB   3 seeders     Added 2012-04-16 02:40:47

Stream torrent
Starting‥ You need BitLord! Get it from 1BitLord.com
To download or stream you need BitLord. Visit them at BitLord.com
General
Format : MPEG-4
Format profile : Base Media
Codec ID : isom
File size : 60.6 MiB
Duration : 3mn 51s
Overall bit rate : 2 193 Kbps
Encoded date : UTC 2012-04-14 20:27:53
Tagged date : UTC 2012-04-14 20:27:53
Video
ID : 1
Format : AVC
Format/Info : Advanced Video Codec
Format profile : High@L3.0
Format settings, CABAC : Yes
Format settings, ReFrames : 2 frames
Codec ID : avc1
Codec ID/Info : Advanced Video Coding
Duration : 3mn 51s
Bit rate mode : Variable
Bit rate : 2 132 Kbps
Maximum bit rate : 6 512 Kbps
Width : 720 pixels
Height : 480 pixels
Display aspect ratio : 16:9
Original display aspect ratio : 16:9
Frame rate mode : Constant
Frame rate : 25.000 fps
Standard : NTSC
Color space : YUV
Chroma subsampling : 4:2:0
Bit depth : 8 bits
Scan type : Progressive
Bits/(Pixel*Frame) : 0.247
Stream size : 58.7 MiB (97%)
Audio
ID : 2
Format : AAC
Format/Info : Advanced Audio Codec
Format profile : LC
Codec ID : 40
Duration : 3mn 51s
Bit rate mode : Variable
Bit rate : 62.6 Kbps
Maximum bit rate : 72.4 Kbps
Channel(s) : 2 channels
Channel positions : Front: L R
Sampling rate : 44.1 KHz
Compression mode : Lossy
Stream size : 1.73 MiB (3%) 
TizianoFerro-LaDifferenzaTraMeETe-musicvideos-hq.net.mp4 63.524 MB
Gathering some info...

Register and log in Isohunt and see no captcha anymore!

4000 symbols left
Hash F645B4D620B9C63DBCBF838DFD83B0B43EDCA5A4

Related torrents for "Tiziano Ferro - La Differenza Tra Me E Te (h264mp4)"