imdb
rating

5.4
Dysfunctional Friends

Dysfunctional Friends (2012)

Comedy, Romance

Full description
quality   dvdrip

DYSFUNCTIONAL FRIENDS

Size 1.782 GB   0 seeders     Added 2012-04-17 02:56:44

Stream torrent
Starting‥ You need BitLord! Get it from BitLord.com
To download or stream you need BitLord. Visit them at BitLord.com
Looking for fast download speeds come join http://dream-torrents.com for all the latest releases, with friendly staff online radio and games and much much more.\r\n-\r\n-\r\n.DYSFUNCTIONAL FRIENDS 2012 DVD XVID INSPiRA\r\n\r\n\r\n\r\n:INFO:\r\nIMDB:\r\n\r\nhttp://www.imdb.com/title/tt1653002/\r\n\r\n\r\n\r\n\r\n\r\nSOURCES: Thx Bro\r\n\r\n\r\n\r\nVIDEO - DVDR\r\n\r\nAUDIO - DVDR\r\n\r\nSUBS - ENG WHEN NEEDED\r\n\r\n\r\n\r\nSTATS:\r\n\r\n\r\n\r\nGeneral\r\n\r\nComplete name : C:\\Users\\adad\\Downloads\\DYSFUNCTIONAL FRIENDS\\DYSFUNCTIONAL FRIENDS 2012 DVD XVID INSPiRAL.avi\r\n\r\nFormat : AVI\r\n\r\nFormat/Info : Audio Video Interleave\r\n\r\nFile size : 1.64 GiB\r\n\r\nDuration : 1h 51mn\r\n\r\nOverall bit rate : 2 106 Kbps\r\n\r\nWriting library : VirtualDub build 32842/release\r\n\r\n\r\n\r\nVideo\r\n\r\nID : 0\r\n\r\nFormat : MPEG-4 Visual\r\n\r\nFormat profile : Advanced Simple@L5\r\n\r\nFormat settings, BVOP : 2\r\n\r\nFormat settings, QPel : No\r\n\r\nFormat settings, GMC : No warppoints\r\n\r\nFormat settings, Matrix : Default (H.263)\r\n\r\nMuxing mode : Packed bitstream\r\n\r\nCodec ID : XVID\r\n\r\nCodec ID/Hint : XviD\r\n\r\nDuration : 1h 51mn\r\n\r\nBit rate : 1 902 Kbps\r\n\r\nWidth : 720 pixels\r\n\r\nHeight : 340 pixels\r\n\r\nDisplay aspect ratio : 2.2:1\r\n\r\nFrame rate : 29.970 fps\r\n\r\nColor space : YUV\r\n\r\nChroma subsampling : 4:2:0\r\n\r\nBit depth : 8 bits\r\n\r\nScan type : Progressive\r\n\r\nCompression mode : Lossy\r\n\r\nBits/(Pixel*Frame) : 0.259\r\n\r\nStream size : 1.48 GiB (90%)\r\n\r\nWriting library : XviD 64\r\n\r\n\r\n\r\nAudio\r\n\r\nID : 1\r\n\r\nFormat : MPEG Audio\r\n\r\nFormat version : Version 1\r\n\r\nFormat profile : Layer 3\r\n\r\nMode : Joint stereo\r\n\r\nMode extension : MS Stereo\r\n\r\nCodec ID : 55\r\n\r\nCodec ID/Hint : MP3\r\n\r\nDuration : 1h 51mn\r\n\r\nBit rate mode : Constant\r\n\r\nBit rate : 192 Kbps\r\n\r\nChannel(s) : 2 channels\r\n\r\nSampling rate : 48.0 KHz\r\n\r\nCompression mode : Lossy\r\n\r\nStream size : 153 MiB (9%)\r\n\r\nAlignment : Split accross interleaves\r\n\r\nInterleave, duration : 33 ms (1.00 video frame)\r\n\r\nInterleave, preload duration : 500 ms\r\n\r\n\r\nGREETZ:\r\n\r\n\r\n\r\nPast,Present and Future
DYSFUNCTIONAL FRIENDS 2012 DVD XVID INSPiRAL SAMPLE.avi 22.453 MB
DYSFUNCTIONAL FRIENDS 2012 DVD XVID INSPiRAL.avi 1.758 GB
DYSFUNCTIONAL FRIENDS 2012 DVD XVID INSPiRAL.nfo 3.235 KB
Gathering some info...

Register and log in Isohunt and see no captcha anymore!

4000 symbols left
Hash 4E4A2257AAC34160599353D3DA381C634DB136AE

Related torrents for "DYSFUNCTIONAL FRIENDS"

Torrent search:

2012