imdb
rating

3.9
Goobers!

Goobers! (2012)

Family, Fantasy, Science Fiction

Full description
quality   dvdrip

Goobers 2012 DvdRip Xvid UnKnOwN

Size 733.393 MB   0 seeders     Added 2012-04-19 02:51:18

Stream torrent
Starting‥ You need BitLord! Get it from 1BitLord.com
To download or stream you need BitLord. Visit them at BitLord.com
Looking for fast download speeds come join http://dream-torrents.com for all the latest releases, with friendly staff online radio and games and much much more.\r\n-\r\n-\r\n.Goobers 2012 DvdRip Xvid UnKnOwN\r\n\r\n \r\n This image has been resized. Click the image to view the full image. The original image is sized: 1058 x 1500\r\n \r\n This image has been resized. Click the image to view the full image. The original image is sized: 656 x 1584\r\n \r\n This image has been resized. Click the image to view the full image. The original image is sized: 720 x 544\r\n \r\n This image has been resized. Click the image to view the full image. The original image is sized: 720 x 544\r\n \r\n This image has been resized. Click the image to view the full image. The original image is sized: 720 x 544\r\n \r\n This image has been resized. Click the image to view the full image. The original image is sized: 720 x 544\r\n \r\n This image has been resized. Click the image to view the full image. The original image is sized: 720 x 544\r\n \r\n This image has been resized. Click the image to view the full image. The original image is sized: 720 x 544\r\n\r\nhttp://www.cduniverse.com/productinfo.asp?pid=8705536: NOTES\r\n\r\nNOTES\r\n\r\nEncoded By .......:UnKnOwN\r\nRuntime ..........:1:26\r\nIMDb URL .........:http://www.amazon.com/Goobers-Artist-Not-Provided/dp/B0\r\nLanguage .........:English\r\nFile Size ........:700mb\r\nRelease Date ......... 2012\r\nSource ......... Cheers M8\r\nFile Type ......... Single AVI\r\nPS3 Compatible ....... Go For It\r\nGenre ......... Fantasy/Comedy\r\n\r\nVideo\r\nID: 0\r\nFormat: MPEG-4 Visual\r\nFormat profile: Advanced Simple@L5\r\nFormat settings, BVOP: Yes\r\nFormat settings, QPel: No\r\nFormat settings, GMC: No warppoints\r\nFormat settings, Matrix: Custom\r\nCodec ID: XVID\r\nCodec ID/Hint: XviD\r\nDuration: 1h 26mn\r\nBit rate: 1280Kbps\r\nWidth: 720pixels\r\nHeight: 544pixels\r\nDisplay aspect ratio: 1:33\r\nFrame rate: 23.997fps\r\nColor space: YUV\r\nChroma subsampling: 4:2:0\r\nBit depth: 8 bits\r\nScan type: Progressive\r\nBits/(Pixel*Frame): 0.234\r\nStream size: 892 MiB (86%)\r\nWriting library: XviD 1.2.1 (UTC 2008-12-04)\r\n\r\nAudio\r\nID: 1\r\nFormat: Ac3\r\nFormat/Info: MPEG\r\nMode extension: CM (complete main)\r\nCodec ID: 2000\r\nDuration: 1h 24mn\r\nBit rate mode: Constant\r\nBit rate: 192kbps\r\nChannel(s): 2channels\r\nChannel positions: Front: L R\r\nSampling rate: 48.0 KHz\r\nBit depth: 16 bits\r\nStream size: 302 MiB\r\nAlignment: Aligned on interleaves\r\nInterleave, duration: 42 ms (1.00 video frame)\r\nInterleave, preload duration: 512 ms\r\n\r\nSYNOPSIS\r\nSquidgy, Blop, and Esmeralda are weird creatures that pose as puppets on a\r\nTV show against their will by the show's host, Cap'n Mike. Tommy and Susie\r\nare their only hope for freedom, but a powerful being has evil plans\r\nfor the supernatural stars!\r\n\r\nRELEASE INFO\r\nEnjoy\r\n\r\nLOOKING FOR\r\n\r\nNothing and never will be\r\n\r\nGREETZ & RESPECT\r\n\r\nNOBODY YET WILL LET YOU KNOW\r\n\r\nMORE GOODIES COMING REAL SOON
Goobers 2012 DvdRip Xvid UnKnOwN.avi 733.383 MB
UnknOwN.nfo 10.616 KB
Gathering some info...

Register and log in Isohunt and see no captcha anymore!

4000 symbols left
Hash D09546A8E64FC29CE122617BF690D52D246F6564

Related torrents for "Goobers 2012 DvdRip Xvid UnKnOwN"

Torrent search:

dvdrip 2012