Il Principe Del Deserto 2011 iTA ENG 720p Bluray x264 BtH

Size 7.404 GB   0 seeders     Added 2012-04-19 02:53:56

Stream torrent
Starting‥ You need BitLord! Get it from 1BitLord.com
4.2
To download or stream you need BitLord. Visit them at BitLord.com
Il.Principe.Del.Deserto.2011.iTA.ENG.720p.Bluray.x264.BtH\r\n\r\n[img]image[/img]\r\n\r\nScheda film:\r\n\r\nTitolo originale: Black Thirst\r\nNazione: Francia, Italia, Quatar\r\nAnno: 2011\r\nGenere: Drammatico\r\nDurata: 130'\r\nRegia: Jean-Jacques Annaud\r\nSito ufficiale: blackgold-themovie.com\r\n\r\nCast: Antonio Banderas, Tahar Rahim, Mark Strong, Freida Pinto, Riz Ahmed, Jamal Awar, Eriq Ebouaney, Mostafa Gaafar\r\nProduzione: Quinta Communications, Prima TV, Carthago Films S.a.r.l., France 2 Cinéma\r\nDistribuzione: Eagle Pictures\r\nData di uscita: 23 Dicembre 2011 (cinema)\r\n\r\n\r\nTrama:\r\n\r\nInizio del ventesimo secolo - Arabia Sotto il sole spietato del deserto, due sultani si incontrano faccia a faccia. Tutto attorno, sul campo di battaglia, i corpi dei loro combattenti. Il vincitore Nesib, emiro di Hobeika (Antonio Banderas), detta le condizioni di pace al suo rivale Amar, sultano di Salmaah (Mark Strong). Nessuno potrà mai più reclamare i diritti della cosiddetta terra di nessuno, denominata \"La Striscia Gialla\". Secondo il costume tribale Nesib \"tiene in ostaggio\", adottandoli, i due figli maschi di Amar, Saleeh (Akin Gazi) e Auda (Tahar Rahim) a garanzia del trattato. Diversi anni dopo: Saleeh è un guerriero ansioso di fuggire dalla gabbia dorata e tornare nella terra del padre, mentre ad Auda interessano solo i libri e la ricerca della conoscenza. Un giorno il padre adottivo, Nesib, riceve la visita di un petroliere texano (Corey Johnson), che lo informa: il suo territorio è benedetto dal petrolio. Nesib sogna già un regno con strade, scuole ed ospedali, tutto pagato dall’oro nero che è sotto l’arida sabbia. Ma c’è un problema: il petrolio si trova nella zona di \"La Striscia Gialla\".\r\n\r\nNome versione: BtH\r\nFonte video: BDFull\r\nFonte audio: Ita AC3 - Eng DTS\r\n\r\nGeneral\r\nUnique ID : 185604483062650751094278764657400010234 (0x8BA21F88599F7F939F0F3DA3E45AD5FA)\r\nComplete name : Il.Principe.Del.Deserto.2011.iTA.ENG.720p.Bluray.x 264.BtH.mkv\r\nFormat : Matroska\r\nFile size : 6.90 GiB\r\nDuration : 2h 4mn\r\nOverall bit rate : 7 906 Kbps\r\nEncoded date : UTC 2012-04-17 22:10:40\r\nWriting application : mkvmerge v3.4.0 ('Rapunzel') built on May 15 2010 09:38:20\r\nWriting library : libebml v0.8.0 + libmatroska v0.9.0\r\n\r\nVideo\r\nID : 1\r\nFormat : AVC\r\nFormat/Info : Advanced Video Codec\r\nFormat profile : High@L4.1\r\nFormat settings, CABAC : Yes\r\nFormat settings, ReFrames : 11 frames\r\nCodec ID : V_MPEG4/ISO/AVC\r\nDuration : 2h 4mn\r\nBit rate : 5 705 Kbps\r\nWidth : 1 280 pixels\r\nHeight : 546 pixels\r\nDisplay aspect ratio : 2.35:1\r\nFrame rate : 25.000 fps\r\nOriginal frame rate : 23.976 fps\r\nColor space : YUV\r\nChroma subsampling : 4:2:0\r\nBit depth : 8 bits\r\nScan type : Progressive\r\nBits/(Pixel*Frame) : 0.327\r\nStream size : 5.11 GiB (74%)\r\nWriting library : x264 core 120 r2164 da19765\r\nEncoding settings : cabac=1 / ref=11 / deblock=1:-3:-3 / analyse=0x3:0x133 / me=umh / subme=10 / psy=1 / psy_rd=1.00:0.00 / mixed_ref=1 / me_range=32 / chroma_me=1 / trellis=2 / 8x8dct=1 / cqm=0 / deadzone=21,11 / fast_pskip=1 / chroma_qp_offset=-2 / threads=12 / sliced_threads=0 / nr=0 / decimate=0 / interlaced=0 / bluray_compat=0 / constrained_intra=0 / bframes=7 / b_pyramid=2 / b_adapt=2 / b_bias=0 / direct=3 / weightb=1 / open_gop=0 / weightp=2 / keyint=250 / keyint_min=23 / scenecut=40 / intra_refresh=0 / rc_lookahead=60 / rc=2pass / mbtree=0 / bitrate=5705 / ratetol=1.0 / qcomp=0.60 / qpmin=0 / qpmax=69 / qpstep=4 / cplxblur=20.0 / qblur=0.5 / vbv_maxrate=30000 / vbv_bufsize=30000 / nal_hrd=none / ip_ratio=1.50 / pb_ratio=1.30 / aq=1:1.00\r\nLanguage : English\r\n\r\nAudio #1\r\nID : 2\r\nFormat : AC-3\r\nFormat/Info : Audio Coding 3\r\nMode extension : CM (complete main)\r\nCodec ID : A_AC3\r\nDuration : 2h 4mn\r\nBit rate mode : Constant\r\nBit rate : 384 Kbps\r\nChannel(s) : 6 channels\r\nChannel positions : Front: L C R, Side: L R, LFE\r\nSampling rate : 48.0 KHz\r\nBit depth : 16 bits\r\nCompression mode : Lossy\r\nDelay relative to video : 20ms\r\nStream size : 343 MiB (5%)\r\nTitle : Ita AC3\r\nLanguage : Italian\r\n\r\nAudio #2\r\nID : 3\r\nFormat : DTS\r\nFormat/Info : Digital Theater Systems\r\nCodec ID : A_DTS\r\nDuration : 2h 4mn\r\nBit rate mode : Constant\r\nBit rate : 1 510 Kbps\r\nChannel(s) : 6 channels\r\nChannel positions : Front: L C R, Side: L R, LFE\r\nSampling rate : 48.0 KHz\r\nBit depth : 16 bits\r\nCompression mode : Lossy\r\nDelay relative to video : 10ms\r\nStream size : 1.32 GiB (19%)\r\nTitle : Eng DTS\r\nLanguage : English
Il.Principe.Del.Deserto.2011.iTA.ENG.720p.Bluray.x264.BtH.avi 7.404 GB
Gathering some info...

Register and log in Isohunt and see no captcha anymore!

4000 symbols left
Hash 1DCC7B1C3881F3993D1BAFEEE49B04E3382113EB

Related torrents for "Il Principe Del Deserto 2011 iTA ENG 720p Bluray x264 BtH"

Torrent search:

italian english x264 hd bd 2011