imdb
rating

6.8
The Girl

The Girl (2009)

Drama, Foreign

Full description
quality   dvdrip hdtv hd

High Kick Girl 2009 DVDrip English Klam

Size 1.474 GB   0 seeders     Added 2012-04-20 03:00:36

Stream torrent
Starting‥ You need BitLord! Get it from 1BitLord.com
To download or stream you need BitLord. Visit them at BitLord.com
[img] image[/img]\r\n\r\nEngels gesproken,\r\nWith: Rina Takeda, Tatsuya Naka and Sayaka Akimoto\r\n\r\nDe 17-jarige Kei sluit zich aan bij een karate dojo. Ze is zeer getalenteerd en atletisch en is al snel een stuk beter dan de jongens die er les volgen. Ondanks dat weigert Matsumara, haar leraar, om haar de zwarte band te geven. Het is duidelijk dat Kei zich enkel interesseert voor het vechten. Matsumara wil dat Kei beseft dat Karate meer is dan alleen maar vechten. Kei wordt echter ongeduldig omdat ze weet dat ze de capaciteiten heeft om de felbegeerde zwarte band te krijgen. Haar wrok tegenover haar leraar groeit. Op advies van haar vriend sluit ze zich aan bij een rivaliserende groep vechters. De leider van de groep is echter van plan om Matsumara aan te vallen.\r\n\r\nEnglish spoken,\r\nYoung girl Kei Tsuchiya(played by Rina Takeda)is a very talented karate pupil, trained by her sensei Yoshiaki Matsumura(played by Tatsuya Naka)...\r\n\r\nhttp://www.imdb.com/title/tt1406157\r\n\r\n[COLOR=#3300FF]------------------------ Dutch Friends ------------------------\r\n---------------------------------------------------------------\r\n- Bezoek ook eens mijn vrienden op:  http://www.Film-Test.nl --\r\n----- voor mijn Nederlandse Sync. ondertitels ---- en meer ----\r\n------- http://www.Film-Test.nl ---- voor Films en meer -------\r\n---------------------------------------------------------------[/COLOR]\r\n\r\nGeneral:\r\n\r\nComplete name                    : High Kick Girl\\High Kick Girl.avi\r\nFormat                           : AVI\r\nFormat/Info                      : Audio Video Interleave\r\nFile size                        : 1.37 GiB\r\nDuration                         : 1h 18mn\r\nOverall bit rate                 : 2 508 Kbps\r\n\r\nVideo:\r\n\r\nFormat                           : MPEG-4 Visual\r\nFormat profile                   : Simple@L3\r\nFormat settings, BVOP            : No\r\nFormat settings, QPel            : No\r\nFormat settings, GMC             : No warppoints\r\nFormat settings, Matrix          : Default (H.263)\r\nCodec ID                         : XVID\r\nCodec ID/Hint                    : XviD\r\nDuration                         : 1h 18mn\r\nBit rate                         : 2 050 Kbps\r\nWidth                            : 652 pixels\r\nHeight                           : 352 pixels\r\nDisplay aspect ratio             : 1.852\r\nFrame rate                       : 25.000 fps\r\nColor space                      : YUV\r\nChroma subsampling               : 4:2:0\r\nBit depth                        : 8 bits\r\nScan type                        : Progressive\r\nCompression mode                 : Lossy\r\nBits/(Pixel*Frame)               : 0.357\r\nStream size                      : 1.12 GiB (82%)\r\nWriting library                  : XviD 1.1.2 (UTC 2006-11-01)\r\n\r\nAudio:\r\n\r\nFormat                           : AC-3\r\nFormat/Info                      : Audio Coding 3\r\nMode extension                   : CM (complete main)\r\nCodec ID                         : 2000\r\nDuration                         : 1h 18mn\r\nBit rate mode                    : Constant\r\nBit rate                         : 448 Kbps\r\nChannel(s)                       : 6 channels\r\nChannel positions                : Front: L C R, Side: L R, LFE\r\nSampling rate                    : 48.0 KHz\r\nBit depth                        : 16 bits\r\nCompression mode                 : Lossy\r\nStream size                      : 250 MiB (18%)\r\nAlignment                        : Aligned on interleaves\r\nInterleave, duration             : 32 ms (0.80 video frame)\r\nInterleave, preload duration     : 224 ms
High Kick Girl.avi 1.472 GB
Cover/High Kick Girl.jpg 1.858 MB
www.Film-Test.nl.JPG 34.175 KB
Gathering some info...

Register and log in Isohunt and see no captcha anymore!

4000 symbols left
Hash 62AED0C900C4C2FA76A00607EEED3B9C88B9A113

Related torrents for "High Kick Girl 2009 DVDrip English Klam"

Torrent search:

dvdrip 2009 english