imdb
rating

5.9
Battleship

Battleship (2012)

Action, Adventure, Science Fiction, Thriller

Full description

Battleship 2012 CAM Xvid-Rg

Size 1.526 GB   0 seeders     Added 2012-04-20 13:07:57

Stream torrent
Starting‥ You need BitLord! Get it from 1BitLord.com
To download or stream you need BitLord. Visit them at BitLord.com
image/

Battleship 2012 CAM Xvid-Rg

Format :AVI

Format/Info :Audio Video Interleave

Format profile :OpenDML

File size :1.30 GiB

Duration :2h 12mn

Overall bit rate :1 398 Kbps

Writers :Erich Hoeber, Jon

release Date :12 April 2012

Copyright :SIGISMUNT

http://www.imdb.com/title/tt1440129/

Video

ID :0

Format :MPEG-4 Visual

Format profile :AdvancedSimple@L5

Format settings, BVOP :Yes

Format settings, QPel :No

Format settings, GMC :No warppoints

Format settings, Matrix :Default (MPEG)

Codec ID :XVID

Codec ID/Hint :XviD

Duration :2h 12mn

Bit rate :1 009 Kbps

Width :640 pixels

Height :272 pixels

Display aspect ratio :2.35:1

Frame rate :23.976 fps

Resolution :24 bits

Colorimetry :4:2:0

Scan type :Progressive

Bits/(Pixel*Frame) :0.242

Stream size :959 MiB (72%)

Writing library :XviD 64

Audio

ID :1

Format :AC-3

Format/Info :Audio Coding 3

Codec ID :2000

Duration :2h 12mn

Bit rate mode :Constant

Bit rate :384 Kbps

Channel(s) :6 channels

Channel positions :Front: L C R, Surround: L R, LFE

Sampling rate :48.0 KHz

Stream size :365 MiB (27%)

Alignment :Aligned on interleaves

Interleave, duration :64 ms (1.53 video frames)

Interleave, preload duration :192 ms

Source :DVD (perfect a/v/sync quality,sample included,hardcoded english

subs for few original foreign parts)

A fleet of ships is forced to do battle with an armada of unknown origins in order to discover and thwart their destructive goals.
Cast:-

Credited cast:
Liam Neeson	 ...	Admiral Shane
Taylor Kitsch	 ...	Alex Hopper
Alexander Skarsgård	 ...	Stone Hopper
Brooklyn Decker	 ...	Samantha
Rihanna	 ...	Raikes
Jesse Plemons	 ...	Ordy
John Bell	 ...	Angus
Peter MacNicol	 ...	Secretary of Defense
Tadanobu Asano	 ...	Nagata
Josh Pence	 ...	Chief Moore
Hamish Linklater	 ...	Cal
Leni Ito	 ...	Japanese News Anchor
Beau Brasseaux	 ...	Navy SEAL (as Beau Brasso)
Reila Aphrodite	 ...	Sam
Gary Grubbs	 ...	Air Force Chief of Staff
Source: DVD (perfect a/v/sync quality,sample included,hardcoded english
subs for few original foreign parts)
A fleet of ships is forced to do battle with an armada of unknown origins in order to discover and thwart their destructive goals.
A fleet of ships is forced to do battle with an armada of unknown origins in order to discover and thwart their destructive goals.
image
Battleship 2012 CAM Xvid-Rg/Battleship 2012 CAM Xvid-Rg HDSceneRG.txt 115 B
Battleship 2012 CAM Xvid-Rg/Battleship 2012 CAM Xvid-Rg Torrent downloaded from Demonoid.me.txt 46 B
Battleship 2012 CAM Xvid-Rg/Battleship 2012 CAM Xvid-Rg Torrent downloaded from rarbg.com.txt.txt 0 B
Gathering some info...

Register and log in Isohunt and see no captcha anymore!

4000 symbols left
Hash 7661ab385f94d3ebeec641fb73b5b0478f466249

Related torrents for "Battleship 2012 CAM Xvid-Rg"

Torrent search:

cam 2012