imdb
rating

6.2
Step Up 2: The Streets

Step Up 2: The Streets (2008)

Drama, Music, Romance

Full description

Step Up

Size 2.939 GB   0 seeders     Added 2012-04-21 02:54:42

Stream torrent
Starting‥ You need BitLord! Get it from BitLord.com
To download or stream you need BitLord. Visit them at BitLord.com
Looking for fast download speeds come join http://dream-torrents.com for all the latest releases, with friendly staff online radio and games and much much more.\r\n-\r\n-\r\n.Step Up Trilogy (2006-2010) ||Eng Subs|| -Avengr\r\n\r\n\r\n\r\nhttp://www.imdb.com/title/tt0462590/\r\n\r\nTiTLE......Step Up\r\nYEAR.......2006\r\nGENRE......Drama / Music / Romance\r\nRUNTiME....01:43:34\r\nSTORE DATE.December 19, 2006\r\nAUDiO.........MP3 48000Hz 112 kb/s CBR (2 chnls)\r\nViDEO.........828 kbps XviD 23.976 FPS\r\nQ. FRAME....0.218 bits*pixel\r\nRESOLUTiON.[ 620 x 256 (2.422 (46:19))\r\nXViD DATE....12/10/2006\r\nSUBS.......... English\r\nFiLES..........1\r\nSiZE............701 MB\r\nSOURCE......NTSC DVD\r\n\r\nGeneral\r\nComplete name :Step.Up.2-The.Streets[2008]DvDrip\r\nSubtitles : English\r\nFormat : AVI\r\nFormat/Info : Audio Video Interleave\r\nFile size : 701 MiB\r\nDuration : 1h 37mn\r\nOverall bit rate : 1 002 Kbps\r\nWriting application : VirtualDubMod 1.5.10.1 (build 2366/release)\r\nWriting library : VirtualDubMod build 2366/release\r\n\r\nVideo\r\nID : 0\r\nFormat : MPEG-4 Visual\r\nFormat profile : AdvancedSimple@L5\r\nFormat settings, BVOP : Yes\r\nFormat settings, QPel : No\r\nFormat settings, GMC : No warppoints\r\nFormat settings, Matrix : Default (H.263)\r\nCodec ID : DX50\r\nCodec ID/Hint : DivX 5\r\nDuration : 1h 37mn\r\nBit rate : 865 Kbps\r\nWidth : 656 pixels\r\nHeight : 346 pixels\r\nDisplay aspect ratio : 1.896\r\nFrame rate : 23.976 fps\r\nResolution : 24 bits\r\nColorimetry : 4:2:0\r\nScan type : Progressive\r\nBits/(Pixel*Frame) : 0.159\r\nStream size : 605 MiB (86%)\r\nWriting library : XviD 1.0.3 (UTC 2004-12-20)\r\n\r\nAudio\r\nID : 1\r\nFormat : MPEG Audio\r\nFormat version : Version 1\r\nFormat profile : Layer 3\r\nCodec ID : 55\r\nCodec ID/Hint : MP3\r\nDuration : 1h 37mn\r\nBit rate mode : Constant\r\nBit rate : 128 Kbps\r\nChannel(s) : 2 channels\r\nSampling rate : 48.0 KHz\r\nResolution : 16 bits\r\nVideo delay : 2s 352ms\r\nStream size : 89.6 MiB (13%)\r\nAlignment : Split accross interleaves\r\nInterleave, duration : 42 ms (1.00 video frame)\r\nInterleave, preload duration : 504 ms\r\n\r\nStep Up 3 (2010) BDRip XviD\r\nAVI | English | 1h 48min | 592x320\r\nXviD - 1696kbps | MP3 - 128kbps | 1.38 GB\r\nGenre: Drama | Music | Romance\r\nSubtitles : English
Step.Up.2-The.Streets[2008]DvDrip/Step.Up.2-The.Streets[2008]DvDrip.avi 735.289 MB
Step.Up.2-The.Streets[2008]DvDrip/Step.Up.2-The.Streets[2008]DvDrip.srt 83.673 KB
Step.Up.3.BDRip.XviD/stepup3-xvid-cd1.avi 734.917 MB
Gathering some info...

Register and log in Isohunt and see no captcha anymore!

4000 symbols left
Hash 1A44F00B180538A3CBD57A802614EEFD9B43FBB8

Related torrents for "Step Up"

Torrent search:

2008