Black Death 2010 DVDRip XviD AC3 DiVERSiTY 1

Size 1.502 GB   0 seeders     Added 2012-04-22 02:52:01

Stream torrent
Starting‥ You need BitLord! Get it from 1BitLord.com
To download or stream you need BitLord. Visit them at BitLord.com
Black Death 2010 DVDRip XviD AC3 - DiVERSiTY\r\n\r\nGENERAL:\r\nComplete name : Black Death 2010 DVDRip XviD AC3 - DiVERSiTY.avi\r\nFormat : AVI\r\nFormat/Info : Audio Video Interleave\r\nFile size : 1.40 GiB\r\nDuration : 1h 37mn\r\nOverall bit rate : 2 047 Kbps\r\nEncoder : usagi\r\nSource : pal retail\r\n\r\nIMDb : http://www.imdb.com/title/tt1181791/\r\n\r\nVIDEO\r\nID : 0\r\nFormat : MPEG-4 Visual\r\nFormat profile : Advanced Simple@L5\r\nFormat settings, BVOP : 2\r\nFormat settings, QPel : No\r\nFormat settings, GMC : No warppoints\r\nFormat settings, Matrix : Default (H.263)\r\nCodec ID : XVID\r\nCodec ID/Hint : XviD\r\nDuration : 1h 37mn\r\nBit rate : 1 592 Kbps\r\nWidth : 720 pixels\r\nHeight : 400 pixels\r\nDisplay aspect ratio : 16:9\r\nFrame rate : 25.000 fps\r\nColor space : YUV\r\nChroma subsampling : 4:2:0\r\nBit depth : 8 bits\r\nScan type : Progressive\r\nCompression mode : Lossy\r\nBits/(Pixel*Frame) : 0.221\r\nStream size : 1.09 GiB (78%)\r\nWriting library : XviD 1.2.1 (UTC 2008-12-04)\r\n\r\nAUDIO\r\nID : 1\r\nFormat : AC-3\r\nFormat/Info : Audio Coding 3\r\nMode extension : CM (complete main)\r\nCodec ID : 2000\r\nDuration : 1h 37mn\r\nBit rate mode : Constant\r\nBit rate : 448 Kbps\r\nChannel(s) : 6 channels\r\nChannel positions : Front: L C R, Side: L R, LFE\r\nSampling rate : 48.0 KHz\r\nBit depth : 16 bits\r\nCompression mode : Lossy\r\nStream size : 313 MiB (22%)\r\nAlignment : Aligned on interleaves\r\nInterleave, duration : 64 ms (1.60 video frames)\r\nInterleave, preload duration : 192 ms\r\nTitle : VTS_04_1 T81 3_2ch 224Kbps DELAY 0ms_new\r\n\r\n\r\n\r\nPlot\r\nSet during the time of the first outbreak of bubonic plague in England,\r\na young monk is tasked with learning the truth\r\nabout reports of people being brought back to life in a small village.\r\n\r\n\r\n\r\nCast\r\nEddie Redmayne ... Osmund\r\nDaniel Steiner ... Monk\r\nDavid Warner ... Abbot\r\nKimberley Nixon ... Averill\r\n\r\nNote\r\n\r\nDont forget to say thnx/rep to the uploader\r\n\r\nGreets to:\r\n\r\nDiVERSiTY|BBnRG|BHRG|Tinners|skrufern|Hibees|chris25867|Zia| ...\r\nand all the others who make p2p what it is today
Black Death 2010 DVDRip XviD AC3 - DiVERSiTY.avi 1.502 GB
Black Death 2010.nfo 8.803 KB
Gathering some info...

Register and log in Isohunt and see no captcha anymore!

4000 symbols left
Hash DDFE4F118FE48F0DEEF02EC447AE6D0BC6381090