imdb
rating

5.1
Darling Companion

Darling Companion (2012)

Drama, Romance

Full description
quality   dvdr screener dvdrip x264 hdtv hd bd

Darling Companion (2012) 720p BluRay X264 BLOW PublicHD

Size 784.949 MB   0 seeders     Added 2012-04-22 02:54:51

Stream torrent
Starting‥ You need BitLord! Get it from BitLord.com
To download or stream you need BitLord. Visit them at BitLord.com
Darling Companion (2012) 720p BluRay X264 BLOW PublicHD\r\n\r\n\r\nFormat                           : AVI\r\nFormat/Info                      : Audio Video Interleave\r\nFormat profile                   : OpenDML\r\nFile size                        : 1.68 GiB\r\nDuration                         : 1h 57mn\r\nOverall bit rate                 : 2 049 Kbps\r\nWriting application              : VirtualDubMod 1.5.10.2 (build 2542/release)\r\nWriting library                  : VirtualDubMod build 2542/release\r\nOriginal source form             : MAX TORRENTZ\r\nCopyright                        : SIGISMUNT\r\n\r\nVideo\r\nID                               : 0\r\nFormat                           : MPEG-4 Visual\r\nFormat profile                   : AdvancedSimple@L5\r\nFormat settings, BVOP            : Yes\r\nFormat settings, QPel            : No\r\nFormat settings, GMC             : No warppoints\r\nFormat settings, Matrix          : Custom\r\nCodec ID                         : XVID\r\nCodec ID/Hint                    : XviD\r\nDuration                         : 1h 57mn\r\nBit rate                         : 1 862 Kbps\r\nWidth                            : 720 pixels\r\nHeight                           : 304 pixels\r\nDisplay aspect ratio             : 2.35:1\r\nFrame rate                       : 23.976 fps\r\nResolution                       : 24 bits\r\nColorimetry                      : 4:2:0\r\nScan type                        : Progressive\r\nBits/(Pixel*Frame)               : 0.355\r\nStream size                      : 1.52 GiB (91%)\r\nWriting library                  : XviD 1.2.0.dev47 (UTC 2006-11-01)\r\n\r\nAudio\r\nID                               : 1\r\nFormat                           : AC-3\r\nFormat/Info                      : Audio Coding 3\r\nCodec ID                         : 2000\r\nDuration                         : 1h 57mn\r\nBit rate mode                    : Constant\r\nBit rate                         : 192 Kbps\r\nChannel(s)                       : 2 channels\r\nChannel positions                : L R\r\nSampling rate                    : 48.0 KHz\r\nStream size                      : 152 MiB (9%)\r\nAlignment                        : Aligned on interleaves\r\nInterleave, duration             : 68 ms (1.62 video frames)\r\nInterleave, preload duration     : 192 ms\r\n\r\n\r\nSource: DVD (perfect a/v/sync good quality,sample included)\r\nThis torrent is not seedbox supported,please seed it,
Darling Ccompanion 2012.jpg 30.661 KB
Darling Companion (2012) 720p BluRay X264 BLOW PublicHD.avi 784.101 MB
MPP-ETRG.nfo 2.875 KB
Gathering some info...

Register and log in Isohunt and see no captcha anymore!

4000 symbols left
Hash 2DBB783CF1A41DAC587E1373F03340057F41FE27

Related torrents for "Darling Companion (2012) 720p BluRay X264 BLOW PublicHD"

Torrent search:

x264 hd 2012 bd