Pitbull - Back In Time (h264mp4)

Size 63.194 MB   0 seeders     Added 2012-04-23 02:41:30

Stream torrent
Starting‥ You need BitLord! Get it from 1BitLord.com
To download or stream you need BitLord. Visit them at BitLord.com
General
Format : MPEG-4
Format profile : Base Media
Codec ID : isom
File size : 61.0 MiB
Duration : 3mn 32s
Overall bit rate : 2 414 Kbps
Encoded date : UTC 2012-04-21 17:33:35
Tagged date : UTC 2012-04-21 17:33:35
Video
ID : 1
Format : AVC
Format/Info : Advanced Video Codec
Format profile : High@L3.0
Format settings, CABAC : Yes
Format settings, ReFrames : 2 frames
Codec ID : avc1
Codec ID/Info : Advanced Video Coding
Duration : 3mn 32s
Bit rate mode : Variable
Bit rate : 2 326 Kbps
Maximum bit rate : 5 084 Kbps
Width : 720 pixels
Height : 480 pixels
Display aspect ratio : 16:9
Original display aspect ratio : 16:9
Frame rate mode : Constant
Frame rate : 23.976 fps
Standard : NTSC
Color space : YUV
Chroma subsampling : 4:2:0
Bit depth : 8 bits
Scan type : Progressive
Bits/(Pixel*Frame) : 0.281
Stream size : 59.1 MiB (97%)
Audio
ID : 2
Format : AAC
Format/Info : Advanced Audio Codec
Format profile : LC
Codec ID : 40
Duration : 3mn 32s
Bit rate mode : Variable
Bit rate : 69.8 Kbps
Maximum bit rate : 81.7 Kbps
Channel(s) : 2 channels
Channel positions : Front: L R
Sampling rate : 44.1 KHz
Compression mode : Lossy
Stream size : 1.76 MiB (3%) 
LaOrejaDeVanGogh-LasNochesQueNoMueren-musicvideos-hq.net.mp4 63.194 MB
Gathering some info...

Register and log in Isohunt and see no captcha anymore!

4000 symbols left
Hash 7CBCF798A3AB97327D3992BC12452E242DC0628C