imdb
rating

5.1
Darling Companion

Darling Companion (2012)

Drama, Romance

Full description
quality   dvdr screener dvdrip x264 hdtv hd bd

Darling Companion (2012) 720p BluRay x264 DON PublicHD

Size 930.188 MB   0 seeders     Added 2012-04-23 11:28:39

Stream torrent
Starting‥ You need BitLord! Get it from BitLord.com
To download or stream you need BitLord. Visit them at BitLord.com
Plot:


The story of a woman who loves her dog more than her husband. And then her husband loses the dog.



Format                           : AVI
Format/Info                      : Audio Video Interleave
Format profile                   : OpenDML
File size                        : 1.68 GiB
Duration                         : 1h 57mn
Overall bit rate                 : 2 049 Kbps
Writing application              : VirtualDubMod 1.5.10.2 (build 2542/release)
Writing library                  : VirtualDubMod build 2542/release
Original source form             : MAX TORRENTZ
Copyright                        : SIGISMUNT

Video
ID                               : 0
Format                           : MPEG-4 Visual
Format profile                   : AdvancedSimple@L5
Format settings, BVOP            : Yes
Format settings, QPel            : No
Format settings, GMC             : No warppoints
Format settings, Matrix          : Custom
Codec ID                         : XVID
Codec ID/Hint                    : XviD
Duration                         : 1h 57mn
Bit rate                         : 1 862 Kbps
Width                            : 720 pixels
Height                           : 304 pixels
Display aspect ratio             : 2.35:1
Frame rate                       : 23.976 fps
Resolution                       : 24 bits
Colorimetry                      : 4:2:0
Scan type                        : Progressive
Bits/(Pixel*Frame)               : 0.355
Stream size                      : 1.52 GiB (91%)
Writing library                  : XviD 1.2.0.dev47 (UTC 2006-11-01)

Audio
ID                               : 1
Format                           : AC-3
Format/Info                      : Audio Coding 3
Codec ID                         : 2000
Duration                         : 1h 57mn
Bit rate mode                    : Constant
Bit rate                         : 192 Kbps
Channel(s)                       : 2 channels
Channel positions                : L R
Sampling rate                    : 48.0 KHz
Stream size                      : 152 MiB (9%)
Alignment                        : Aligned on interleaves
Interleave, duration             : 68 ms (1.62 video frames)
Interleave, preload duration     : 192 ms


Source: DVD (perfect a/v/sync good quality,sample included)
This torrent is not seedbox supported,please seed it,
Darling Companion (2012) 720p BluRay x264 DON PublicHD/Darling Ccompanion 2012.jpg 30.661 KB
Darling Companion (2012) 720p BluRay x264 DON PublicHD/Darling Companion (2012) 720p BluRay x264 DON PublicHD.avi 870.084 MB
Darling Companion (2012) 720p BluRay x264 DON PublicHD/Darling Companion (2012) 720p BluRay x264 DON PublicHD.trailer 59.255 MB
Gathering some info...

Register and log in Isohunt and see no captcha anymore!

4000 symbols left
Hash a9aa7a1f7ff650a71dd868ebbb6c39872e6d608d

Related torrents for "Darling Companion (2012) 720p BluRay x264 DON PublicHD"

Torrent search:

x264 hd 2012 bd