Los Claxons - Ahi Estare (h264mp4)

Size 64.117 MB   2 seeders     Added 2012-04-24 02:39:58

Stream torrent
Starting‥ You need BitLord! Get it from 1BitLord.com
10
To download or stream you need BitLord. Visit them at BitLord.com
General
Format : MPEG-4
Format profile : Base Media
Codec ID : isom
File size : 61.1 MiB
Duration : 3mn 28s
Overall bit rate : 2 466 Kbps
Encoded date : UTC 2012-04-21 18:12:58
Tagged date : UTC 2012-04-21 18:12:58
Video
ID : 1
Format : AVC
Format/Info : Advanced Video Codec
Format profile : High@L3.0
Format settings, CABAC : Yes
Format settings, ReFrames : 2 frames
Codec ID : avc1
Codec ID/Info : Advanced Video Coding
Duration : 3mn 28s
Bit rate mode : Variable
Bit rate : 2 373 Kbps
Maximum bit rate : 14.7 Mbps
Width : 720 pixels
Height : 480 pixels
Display aspect ratio : 16:9
Original display aspect ratio : 16:9
Frame rate mode : Constant
Frame rate : 23.976 fps
Standard : NTSC
Color space : YUV
Chroma subsampling : 4:2:0
Bit depth : 8 bits
Scan type : Progressive
Bits/(Pixel*Frame) : 0.286
Stream size : 59.3 MiB (97%)
Audio
ID : 2
Format : AAC
Format/Info : Advanced Audio Codec
Format profile : LC
Codec ID : 40
Duration : 3mn 27s
Bit rate mode : Variable
Bit rate : 66.15 Kbps
Maximum bit rate : 77.8 Kbps
Channel(s) : 2 channels
Channel positions : Front: L R
Sampling rate : 44.1 KHz
Compression mode : Lossy
Stream size : 1.66 MiB (3%) 
LosClaxons-AhiEstare-musicvideos-hq.net.mp4 64.117 MB
Gathering some info...

Register and log in Isohunt and see no captcha anymore!

4000 symbols left
Hash C5248492446AA1E22BCA4638A225904A35B14C44