imdb
rating

3.8
The Hike

The Hike (2011)

Horror, Thriller

Full description
quality   screener dvdrip x264 bd hd

The Hike 2011 DVDRIP XviD AC3 Merge 1

Size 746.538 MB   0 seeders     Added 2012-04-24 02:52:32

Stream torrent
Starting‥ You need BitLord! Get it from BitLord.com
To download or stream you need BitLord. Visit them at BitLord.com
Looking for fast download speeds come join http://dream-torrents.com for all the latest releases, with friendly staff online radio and games and much much more.\r\n-\r\n-\r\n.The.Hike.2011.DVDRIP.XviD.AC3-Merge\r\n\r\nFormat : AVI\r\nFormat/Info : Audio Video Interleave\r\nFile size : 701 MiB\r\nDuration : 1h 23mn\r\nOverall bit rate : 1 178 Kbps\r\nWriting application : VirtualDubMod 1.5.4.1 (build 2178/release)\r\nWriting library : VirtualDubMod build 2178/release\r\n\r\nVideo\r\nID : 0\r\nFormat : MPEG-4 Visual\r\nFormat profile : Advanced Simple@L5\r\nFormat settings, BVOP : 1\r\nFormat settings, QPel : No\r\nFormat settings, GMC : No warppoints\r\nFormat settings, Matrix : Custom\r\nCodec ID : XVID\r\nCodec ID/Hint : XviD\r\nDuration : 1h 23mn\r\nBit rate : 723 Kbps\r\nWidth : 608 pixels\r\nHeight : 256 pixels\r\nDisplay aspect ratio : 2.40:1\r\nFrame rate : 25.000 fps\r\nColor space : YUV\r\nChroma subsampling : 4:2:0\r\nBit depth : 8 bits\r\nScan type : Progressive\r\nCompression mode : Lossy\r\nBits/(Pixel*Frame) : 0.186\r\nStream size : 430 MiB (61%)\r\nWriting library : XviD 64\r\n\r\nAudio\r\nID : 1\r\nFormat : AC-3\r\nFormat/Info : Audio Coding 3\r\nMode extension : CM (complete main)\r\nCodec ID : 2000\r\nDuration : 1h 23mn\r\nBit rate mode : Constant\r\nBit rate : 448 Kbps\r\nChannel(s) : 2 channels\r\nChannel positions : Front: L R\r\nSampling rate : 48.0 KHz\r\nBit depth : 16 bits\r\nCompression mode : Lossy\r\nStream size : 266 MiB (38%)\r\nAlignment : Split accross interleaves\r\nInterleave, duration : 96 ms (2.40 video frames)\r\nInterleave, preload duration : 96 ms\r\nLanguage : English\r\nRls:02/20/2012\r\n\r\nSource________________________________: DVD\r\nGenre_________________________________: Horror\r\nIMDB__________________________________: http://www.imdb.com/title/tt1572194/
The.Hike.2011.DVDRIP.XviD.AC3-Merge.nfo 2.874 KB
sample.avi 11.857 MB
the.hike.2011.dvdrip.xvid.ac3-merge.avi 734.679 MB
Gathering some info...

Register and log in Isohunt and see no captcha anymore!

4000 symbols left
Hash 502723DB3CEF87806E3BA78A892C3FEAE607E2F9

Related torrents for "The Hike 2011 DVDRIP XviD AC3 Merge 1"

Torrent search:

dvdrip 2011