imdb
rating

6.5
The Lucky One

The Lucky One (2012)

Drama, Romance

Full description
quality   dvdr telesync dvdrip cam bd

The Lucky One (2012) DVDScR XviD.AC3 - ANFX

Size 34.744 GB   0 seeders     Added 2012-04-25 02:51:54

Stream torrent
Starting‥ You need BitLord! Get it from 1BitLord.com
10
To download or stream you need BitLord. Visit them at BitLord.com
IMDb: http://www.imdb.com/title/tt1327194/ ------------------------------------------- The Lucky One (2012) DVDScR_XviD.AC3 - ANFX ------------------------------------------- Sample....................: Yes Sample Size...............: 13.2 MiB ------------------------------------ Details: ------- Video ID : 0 Format : MPEG-4 Visual Format profile : AdvancedSimple@L5 Format settings, BVOP : Yes Format settings, QPel : No Format settings, GMC : No warppoints Format settings, Matrix : Custom Codec ID : XVID Codec ID/Hint : XviD Duration : 1h 41mn Bit rate : 1 625 Kbps Width : 720 pixels Height : 304 pixels Display aspect ratio : 2.35:1 Frame rate : 23.976 fps Resolution : 24 bits Colorimetry : 4:2:0 Scan type : Progressive Bits/(Pixel*Frame) : 0.310 Stream size : 691 MiB (99%) Writing library : XviD 58 Audio ID : 1 Format : AC-3 Format/Info : Audio Coding 3 Codec ID : 2000 Duration : 1h 41mn Bit rate mode : Constant Bit rate : 192 Kbps Channel(s) : 2 channels Channel positions : L R Sampling rate : 48.0 KHz Stream size : 147 MiB (11%) Alignment : Aligned on interleaves Interleave, duration : 64 ms (1.53 video frames) Interleave, preload duration : 192 ms ----------------------------------------- Plot: ---- A Marine travels to North Carolina after serving three tours in Iraq and searches for the unknown woman he believes was his good luck charm during the war. -------------------------------------- Screenshots: ----------- ------------------
The.Lost.Bladesman.2011.BluRay.1080p.AVC.LPCM7.1.TrueHD7.1-CHDBits.iso 34.744 GB
Gathering some info...

Register and log in Isohunt and see no captcha anymore!

4000 symbols left
Hash 5CA990CDD0049F916E5E304FB8D0559AF77FA448

Related torrents for "The Lucky One (2012) DVDScR XviD.AC3 - ANFX"

Torrent search:

screener 2012