imdb
rating

6.4
The Change-Up

The Change-Up (2011)

Comedy

Full description
quality   telesync bd cam x264 screener

The Change Up 2011 Theatrical Cut DVDRip XviD EXViD

Size 1.529 GB   0 seeders     Added 2012-04-25 02:52:01

Stream torrent
Starting‥ You need BitLord! Get it from 1BitLord.com
To download or stream you need BitLord. Visit them at BitLord.com
The Change-Up 2011 Theatrical Cut DVDRip XviD-EXViD\r\n\r\nEXVID\r\n\r\nFilled the Archives\r\n\r\nWith:\r\n\r\nE240\r\n\r\nSP © 2009\r\n\r\nThe.Change-Up.2011.Theatrical.Cut.DVDRip.XviD-EXViD\r\n\r\nEXViD aims to iNTERNAL those releases which have been lost in the archives\r\nEXViD aims to PRE non-internal releases which have poor sources and are likely skipped by others\r\n\r\nhttp://www.imdb.com/title/tt1488555/\r\nSubtitles: EN, FR, NL\r\nDate: 2012.04\r\nDirector: David Dobkin\r\n\r\nGenres: Comedy\r\n\r\nPlot:\r\nGrowing up together, Mitch (Ryan Reynolds) and Dave (Jason Bateman) were inseparable best friends\r\nbut as the years have passed they've slowly drifted apart. While Dave is an overworked lawyer\r\nhusband and father of three, Mitch has remained a single, quasi-employed man-child who has never\r\nmet a responsibility he liked. To Mitch, Dave has it all: beautiful wife Jamie (Leslie Mann)\r\nkids who adore him and a high-paying job at a prestigious law firm. To Dave, living Mitch's\r\nstress-free life without obligation or consequence would be a dream come true. Following a\r\ndrunken night out together, Mitch and Dave's worlds are turned upside down when they wake up\r\nin each other's bodies and proceed to freak out. Despite the freedom from their normal routines\r\nand habits, the guys soon discover that each other's lives are nowhere near as rosy as they once\r\nseemed. Further complicating matters are Dave's sexy legal associate\r\n\r\nCast:\r\nRyan Reynolds ... Mitch Planko\r\nJason Bateman ... Dave Lockwood\r\nLeslie Mann ... Jamie Lockwood\r\nOlivia Wilde ... Sabrina McArdle\r\nAlan Arkin ... Mitch's Dad\r\nMircea Monroe ... Tatiana\r\nGregory Itzin ... Flemming Steel\r\nNed Schmidtke ... Ted Norton\r\nMing Lo ... Ken Kinkabe\r\nSydney Rouviere ... Cara Lockwood\r\nDax Griffin ... Blow-Dried Goon\r\nAndrea Moore ... Sophia\r\nMatt Cornwell ... Parks Foreman (as Matthew Cornwell)\r\nCraig Bierko ... Valtan\r\nTaaffe O'Connell ... Mona\r\n\r\nStats:\r\nFormat: AVI\r\nFormat/Info: Audio Video Interleave\r\nFile size: 1.37 GiB\r\nDuration: 1h 47mn\r\nOverall bit rate: 1 815 Kbps\r\nWriting application: VirtualDubMod 1.5.10.2 (build 2540/release)\r\nWriting library: VirtualDubMod build 2540/release\r\n\r\nVideo\r\nID: 0\r\nFormat: MPEG-4 Visual\r\nFormat profile: Advanced Simple@L5\r\nFormat settings, BVOP: Yes\r\nFormat settings, QPel: No\r\nFormat settings, GMC: No warppoints\r\nFormat settings, Matrix: Default (H.263)\r\nMuxing mode: Packed bitstream\r\nCodec ID: XVID\r\nCodec ID/Hint: XviD\r\nDuration: 1h 47mn\r\nBit rate: 1 421 Kbps\r\nWidth: 640 pixels\r\nHeight: 272 pixels\r\nDisplay aspect ratio: 2.35:1\r\nFrame rate: 25.000 fps\r\nColor space: YUV\r\nChroma subsampling: 4:2:0\r\nBit depth: 8 bits\r\nScan type: Progressive\r\nBits/(Pixel*Frame): 0.327\r\nStream size: 1.07 GiB (78%)\r\nWriting library: XviD 62\r\n\r\nAudio\r\nID: 1\r\nFormat: AC-3\r\nFormat/Info: Audio Coding 3\r\nMode extension: CM (complete main)\r\nCodec ID: 2000\r\nDuration: 1h 47mn\r\nBit rate mode: Constant\r\nBit rate: 384 Kbps\r\nChannel(s): 6 channels\r\nChannel positions: Front: L C R, Side: L R, LFE\r\nSampling rate: 48.0 KHz\r\nBit depth: 16 bits\r\nStream size: 296 MiB (21%)\r\nAlignment: Split accross interleaves\r\nInterleave, duration: 40 ms (1.00 video frame)\r\nInterleave, preload duration: 500 ms\r\n\r\nRelease notes:\r\nCOCAIN did the UNRATED, this is the THEATRiCAL cut\r\n\r\nSee http://www.movie-censorship.com/report.php?ID=272744 for differences\r\n\r\nenjoy!\r\n\r\nLooking for:\r\n75TB+ Archives\r\nDUTCH/FLEMiSH Archives\r\n\r\nGreets: CRBS EPiSODE FiCO FLS iLS KLASSiGER LiPSYNC MADE NODLABS RUNNER SPRiNTER\r\n\r\nASCII DONE BY XX^NFO 2oo9
CD1/exvid-changeup-cd1.r00 15 MB
CD1/exvid-changeup-cd1.r01 15 MB
CD1/exvid-changeup-cd1.r02 15 MB
Gathering some info...

Register and log in Isohunt and see no captcha anymore!

4000 symbols left
Hash 059179BC9CE11E19FEA1DF68B08ABB39720F4081

Related torrents for "The Change Up 2011 Theatrical Cut DVDRip XviD EXViD"

Torrent search:

dvdrip 2011