imdb
rating

5.1
The Three Stooges

The Three Stooges (2012)

Comedy

Full description

The Three Stooges (2012) [TS XviD-miguel] [ENG]

Size 1.132 GB   0 seeders     Added 2012-04-25 02:55:40

Stream torrent
Starting‥ You need BitLord! Get it from 1BitLord.com
To download or stream you need BitLord. Visit them at BitLord.com
The Three Stooges (2012) [TS XviD-miguel] [ENG]\r\nFormat                           : AVI\r\nFormat/Info                      : Audio Video Interleave\r\nFormat profile                   : OpenDML\r\nOverall bit rate                 : 1 398 Kbps\r\nWriting application              : VirtualDubMod 1.5.10.2 (build 2542/release)\r\nWriting library                  : VirtualDubMod build 2542/release\r\nOriginal source form             : MAX TORRENTZ\r\nCopyright                        : SIGISMUNT\r\n\r\nVideo\r\nID                               : 0\r\nFormat                           : MPEG-4 Visual\r\nFormat profile                   : AdvancedSimple@L5\r\nFormat settings, BVOP            : Yes\r\nFormat settings, QPel            : No\r\nFormat settings, GMC             : No warppoints\r\nFormat settings, Matrix          : Default (MPEG)\r\nCodec ID                         : XVID\r\nCodec ID/Hint                    : XviD\r\nBit rate                         : 1 009 Kbps\r\nWidth                            : 640 pixels\r\nHeight                           : 272 pixels\r\nDisplay aspect ratio             : 2.35:1\r\nFrame rate                       : 23.976 fps\r\nResolution                       : 24 bits\r\nColorimetry                      : 4:2:0\r\nScan type                        : Progressive\r\nBits/(Pixel*Frame)               : 0.242\r\nStream size                      : 959 MiB (72%)\r\nWriting library                  : XviD 64\r\n\r\nAudio\r\nID                               : 1\r\nFormat                           : AC-3\r\nFormat/Info                      : Audio Coding 3\r\nCodec ID                         : 2000\r\nBit rate mode                    : Constant\r\nBit rate                         : 384 Kbps\r\nChannel(s)                       : 6 channels\r\nChannel positions                : Front: L C R, Surround: L R, LFE\r\nSampling rate                    : 48.0 KHz\r\nStream size                      : 365 MiB (27%)\r\nAlignment                        : Aligned on interleaves\r\nInterleave, duration             : 64 ms (1.53 video frames)\r\nInterleave, preload duration     : 192 ms\r\n\r\nSource: DVD (perfect a/v/sync quality,sample included,hardcoded english\r\nsubs for few original foreign parts)\r\nThis torrent is not seedbox supported,please seed it to the MAX
Subs[ENG].srt 136.693 KB
The Three Stooges (2012) [TS XviD-miguel] [ENG].avi 876.459 MB
The Three Stooges (2012) [TS XviD-miguel] [ENG].nfo 252.437 MB
Gathering some info...

Register and log in Isohunt and see no captcha anymore!

4000 symbols left
Hash 0FDA74F2DE1A00A79E4C0A163D8EEED629128365

Related torrents for "The Three Stooges (2012) [TS XviD-miguel] [ENG]"

Torrent search:

english telesync 2012