X-Art - Little Caprice - Backdoor Lover

Size 357.44 MB   0 seeders     Added 2012-04-25 18:07:27

To download or stream you need BitLord. Visit them at BitLord.com
General
Complete name                    : G:\\xxx\\x-art - Little Caprice - Backdoor Lover 
Format                           : Windows Media
File size                        : 349 MiB
Duration                         : 11mn 33s
Overall bit rate                 : 3 589 Kbps
Maximum Overall bit rate         : 5 128 Kbps
Encoded date                     : UTC 1970-01-01 00:00:00.000

Video
ID                               : 2
Format                           : WMV2
Codec ID                         : WMV2
Codec ID/Info                    : Windows Media Video 8
Description of the codec         : wmv2
Duration                         : 11mn 33s
Bit rate                         : 5 000 Kbps
Width                            : 1 280 pixels
Height                           : 720 pixels
Display aspect ratio             : 16:9
Frame rate                       : 23.976 fps
Bit depth                        : 8 bits
Bits/(Pixel*Frame)               : 0.226
Stream size                      : 414 MiB

Audio
ID                               : 1
Format                           : WMA
Format version                   : Version 2
Codec ID                         : 161
Codec ID/Info                    : Windows Media Audio
Description of the codec         : Windows Media Audio V8
Duration                         : 11mn 33s
Bit rate                         : 128 Kbps
Channel(s)                       : 2 channels
Sampling rate                    : 44.1 KHz
Bit depth                        : 16 bits
Stream size                      : 10.6 MiB (4%)


Screens:
image
X-Art - Little Caprice - Backdoor Lover.rar 357.44 MB
Gathering some info...

Register and log in Isohunt and see no captcha anymore!

4000 symbols left
Hash 504e67e5016016c70ac48ac7bf3f129d3aca2014