Joao Gilberto - Amoroso

Size 304.704 MB   17 seeders     Added 2012-04-26 01:35:14

Stream torrent
Starting‥ You need BitLord! Get it from BitLord.com
To download or stream you need BitLord. Visit them at BitLord.com
[CENTER][img]image[/img]

[img]image[/img]

[img]image[/img]

[img]image[/img]

[b]Artist: João Gilberto
Title Of Album: Amoroso
Etichetta: Warner Music Brasil
Pubblicazione: LP: 1977 CD:2008
Genre: Jazz/Bossa
Source: CD
Playing Time: 45.16
Total Size: 290,37 MB
Quality: FLAC+Cue+Log+Info+Cover[/b]

[img]image[/img]

[b]1. 'S wonderful (English Version)[04.11]
2. Estate (Italian Version)[06.31]
3. Tin tin por tin tin  (Portuguese Version)[03.42]
4. Besame mucho (Spanish Version)[08.57]
5. Wave (Vou te contar) (Portuguese Version)[04.44]
6. Caminhos cruzados (Portuguese Version)[06.16]
7. Triste (Portuguese Version)[04.22]
8. Zingaro (Retrato em branco e preto) (Portuguese Version)[06.30][/b]

[img]image[/img]

Joao Gilberto is perhaps forever destined to be lesser known to casual jazz fans than his occasional collaborator Stan Getz (whose GETZ/GILBERTO albums introduced the United States to bossa nova) and his ex-wife Astrud Gilberto (whose shy, delicate voice made her one of the most distinctive and beloved jazz vocalists of the '60s). However, true fans of Brazilian music recognize that Gilberto is second only to Antonio Carlos Jobim as a writer and interpreter of traditional Brazilian music and Brazilian-influenced jazz.

These two albums, collected in full on one CD, are among Gilberto's best solo albums. Alternating between standards like "'S Wonderful" or "Besame Mucho" and Brazilian tunes like Jobim's "Wave" and the original "Triste," AMOROSO is a fine, romantic jazz album. BRASIL, as the title suggests, consists of six traditional-style sambas, sung in Portuguese to acoustic guitars and hypnotic percussion. Both are essential to Gilberto fans and neophytes.

[img]image[/img]

[quote]Exact Audio Copy V1.0 beta 3 from 29. August 2011

EAC extraction logfile from 24. April 2012, 16:38

Joao Gilberto / Amoroso

Used drive  : HL-DT-STDVDRAM GSA-T40N   Adapter: 0  ID: 0

Read mode               : Secure
Utilize accurate stream : Yes
Defeat audio cache      : Yes
Make use of C2 pointers : No

Read offset correction                      : 667
Overread into Lead-In and Lead-Out          : No
Fill up missing offset samples with silence : Yes
Delete leading and trailing silent blocks   : No
Null samples used in CRC calculations       : Yes
Used interface                              : Native Win32 interface for Win NT & 2000
Gap handling                                : Appended to previous track

Used output format              : User Defined Encoder
Selected bitrate                : 896 kBit/s
Quality                         : High
Add ID3 tag                     : No
Command line compressor         : C:\Program Files\Exact Audio Copy\FLAC\FLAC.EXE
Additional command line options : -8 -V -T "ARTIST=%artist%" -T "TITLE=%title%" -T "ALBUM=%albumtitle%" -T "DATE=%year%" -T "TRACKNUMBER=%tracknr%" -T "GENRE=%genre%" -T "COMMENT=%comment%" -T "BAND=%albuminterpret%" -T "ALBUMARTIST=%albuminterpret%" -T "COMPOSER=%composer%" %haslyrics%--tag-from-file=LYRICS="%lyricsfile%"%haslyrics% -T "DISCNUMBER=%cdnumber%" -T "TOTALDISCS=%totalcds%" -T "TOTALTRACKS=%numtracks%" %hascover%--picture="%coverfile%"%hascover% %source% -o %dest%


TOC of the extracted CD

     Track |   Start  |  Length  | Start sector | End sector 
    ---------------------------------------------------------
        1  |  0:00.00 |  4:11.57 |         0    |    18881   
        2  |  4:11.57 |  6:31.11 |     18882    |    48217   
        3  | 10:42.68 |  3:42.68 |     48218    |    64935   
        4  | 14:25.61 |  8:57.08 |     64936    |   105218   
        5  | 23:22.69 |  4:44.35 |    105219    |   126553   
        6  | 28:07.29 |  6:16.60 |    126554    |   154813   
        7  | 34:24.14 |  4:22.02 |    154814    |   174465   
        8  | 38:46.16 |  6:30.47 |    174466    |   203762   


Track  1

     Filename H:\MY EAC[.FLAC]\Joao Gilberto - Amoroso\(1) 'S wonderful - Joao Gilberto.flac

     Pre-gap length  0:00:02.00

     Peak level 64.0 %
     Extraction speed 1.1 X
     Track quality 100.0 %
     Test CRC 62684717
     Copy CRC 62684717
     Cannot be verified as accurate (confidence 2)  [5BC717F3], AccurateRip returned [5EF0EBF8]  (AR v2)
     Copy OK

Track  2

     Filename H:\MY EAC[.FLAC]\Joao Gilberto - Amoroso\(2) Estate - Joao Gilberto.flac

     Pre-gap length  0:00:02.08

     Peak level 61.1 %
     Extraction speed 1.4 X
     Track quality 100.0 %
     Test CRC 7EB0C79C
     Copy CRC 7EB0C79C
     Cannot be verified as accurate (confidence 2)  [4C59ADE4], AccurateRip returned [FCFE9B1C]  (AR v2)
     Copy OK

Track  3

     Filename H:\MY EAC[.FLAC]\Joao Gilberto - Amoroso\(3) Tin tin por tin tin - Joao Gilberto.flac

     Pre-gap length  0:00:03.25

     Peak level 82.9 %
     Extraction speed 1.4 X
     Track quality 100.0 %
     Test CRC 87094EEA
     Copy CRC 87094EEA
     Cannot be verified as accurate (confidence 2)  [2F91F89E], AccurateRip returned [A633AE3F]  (AR v2)
     Copy OK

Track  4

     Filename H:\MY EAC[.FLAC]\Joao Gilberto - Amoroso\(4) Besame mucho - Joao Gilberto.flac

     Pre-gap length  0:00:02.08

     Peak level 62.3 %
     Extraction speed 0.8 X
     Track quality 100.0 %
     Test CRC 2AE0A20D
     Copy CRC 2AE0A20D
     Cannot be verified as accurate (confidence 2)  [1A3D79B0], AccurateRip returned [BEF69A92]  (AR v2)
     Copy OK

Track  5

     Filename H:\MY EAC[.FLAC]\Joao Gilberto - Amoroso\(5) Wave (Vou te contar) - Joao Gilberto.flac

     Pre-gap length  0:00:05.46

     Peak level 66.8 %
     Extraction speed 1.4 X
     Track quality 100.0 %
     Test CRC D4E33740
     Copy CRC D4E33740
     Cannot be verified as accurate (confidence 2)  [3A05429F], AccurateRip returned [204BBF92]  (AR v2)
     Copy OK

Track  6

     Filename H:\MY EAC[.FLAC]\Joao Gilberto - Amoroso\(6) Caminhos cruzados - Joao Gilberto.flac

     Pre-gap length  0:00:02.08

     Peak level 74.0 %
     Extraction speed 1.5 X
     Track quality 99.9 %
     Test CRC A1CE1D4C
     Copy CRC A1CE1D4C
     Cannot be verified as accurate (confidence 2)  [4E840880], AccurateRip returned [F4991350]  (AR v2)
     Copy OK

Track  7

     Filename H:\MY EAC[.FLAC]\Joao Gilberto - Amoroso\(7) Triste - Joao Gilberto.flac

     Pre-gap length  0:00:01.94

     Peak level 87.7 %
     Extraction speed 1.7 X
     Track quality 100.0 %
     Test CRC A21AFEC2
     Copy CRC A21AFEC2
     Cannot be verified as accurate (confidence 2)  [FC8A2447], AccurateRip returned [E5A5443A]  (AR v2)
     Copy OK

Track  8

     Filename H:\MY EAC[.FLAC]\Joao Gilberto - Amoroso\(8) Zingaro (Retrato em branco e preto) - Joao Gilberto.flac

     Pre-gap length  0:00:02.46

     Peak level 82.7 %
     Extraction speed 1.9 X
     Track quality 100.0 %
     Test CRC 41BBE887
     Copy CRC 41BBE887
     Cannot be verified as accurate (confidence 2)  [03971EDD], AccurateRip returned [31167469]  (AR v2)
     Copy OK

None of the tracks are present in the AccurateRip database

No errors occurred

End of status report

==== Log checksum 668AB293E996C4D7A2C5D38F082FF855F4679E31AE17561F353D973EA3FB5D9B ====[/quote][/CENTER]
Folder/DSC00798.JPG 54.949 KB
Folder/DSC00799.gif 103.542 KB
Folder/Joo-Gilberto-Amoroso---White-L-549066.jpg 57.014 KB
Gathering some info...

Register and log in Isohunt and see no captcha anymore!

4000 symbols left
Hash 52F0298D86D548CC72257AD1BDB4C3C67CFEE2F4

Related torrents for "Joao Gilberto - Amoroso"