imdb
rating

4.7
Catch .44

Catch .44 (2011)

Action, Drama, Thriller

Full description
quality   bd x264 hd fullhd dvdr dvdrip

Catch 44

Size 1.226 GB   0 seeders     Added 2012-04-26 03:00:30

Stream torrent
Starting‥ You need BitLord! Get it from BitLord.com
To download or stream you need BitLord. Visit them at BitLord.com
[img] image[/img]\r\n\r\nWith: Forest Whitaker, Bruce Willis and Malin Akerman\r\n\r\nTes, Dawn en Kara werken in Vegas, maar redden het financieel nauwelijks. Hun levens veranderen wanneer Tes een interessante vreemdeling ontmoet, genaamd Mel. Wanneer Mel deze meiden een kans aanbiedt voor een beter leven, komen de meiden in een buitengewone situatie terecht met een psychopathische huurmoordenaar, een grauwe truckchauffeur en een gedesillusioneerde kok.\r\n\r\nFor Tes (Akerman) and her two cohorts Kara (Nikki Reed) and Dawn (Deborah Ann Woll), the job sounded... \r\n\r\nhttp://www.imdb.com/title/tt1886493\r\n\r\n[COLOR=#3300FF]------------------------ Dutch Friends ------------------------\r\n---------------------------------------------------------------\r\n- Bezoek ook eens mijn vrienden op:  http://www.Film-Test.nl --\r\n----- voor mijn Nederlandse Sync. ondertitels ---- en meer ----\r\n------- http://www.Film-Test.nl ---- voor Films en meer -------\r\n---------------------------------------------------------------\r\n[/COLOR]\r\nGeneral:\r\n\r\nComplete name                    : Catch 44\\Catch 44.avi\r\nFormat                           : AVI\r\nFormat/Info                      : Audio Video Interleave\r\nFile size                        : 1.14 GiB\r\nDuration                         : 1h 33mn\r\nOverall bit rate                 : 1 743 Kbps\r\n\r\nVideo:\r\n\r\nFormat                           : MPEG-4 Visual\r\nFormat profile                   : Simple@L3\r\nFormat settings, BVOP            : No\r\nFormat settings, QPel            : No\r\nFormat settings, GMC             : No warppoints\r\nFormat settings, Matrix          : Default (H.263)\r\nCodec ID                         : XVID\r\nCodec ID/Hint                    : XviD\r\nDuration                         : 1h 33mn\r\nBit rate                         : 1 284 Kbps\r\nWidth                            : 720 pixels\r\nHeight                           : 302 pixels\r\nDisplay aspect ratio             : 2.35:1\r\nFrame rate                       : 23.976 fps\r\nColor space                      : YUV\r\nChroma subsampling               : 4:2:0\r\nBit depth                        : 8 bits\r\nScan type                        : Progressive\r\nCompression mode                 : Lossy\r\nBits/(Pixel*Frame)               : 0.246\r\nStream size                      : 861 MiB (74%)\r\nWriting library                  : XviD 1.1.2 (UTC 2006-11-01)\r\n\r\nAudio:\r\n\r\nFormat                           : AC-3\r\nFormat/Info                      : Audio Coding 3\r\nMode extension                   : CM (complete main)\r\nCodec ID                         : 2000\r\nDuration                         : 1h 33mn\r\nBit rate mode                    : Constant\r\nBit rate                         : 448 Kbps\r\nChannel(s)                       : 6 channels\r\nChannel positions                : Front: L C R, Side: L R, LFE\r\nSampling rate                    : 48.0 KHz\r\nBit depth                        : 16 bits\r\nCompression mode                 : Lossy\r\nStream size                      : 300 MiB (26%)\r\nAlignment                        : Aligned on interleaves\r\nInterleave, duration             : 32 ms (0.77 video frame)
Catch 44.avi 1.226 GB
Cover/Catch 44.jpg 58.545 KB
Cover/www.Film-Test.nl.JPG 34.175 KB
Gathering some info...

Register and log in Isohunt and see no captcha anymore!

4000 symbols left
Hash FEEA6F6E9AD9DA1015DA414D0A45C89FCE2A670B

Related torrents for "Catch 44"