imdb
rating

6.5
Safe

Safe (2012)

Action, Crime, Thriller

Full description

Safe (2012) Hindi DVDSCR XviD MSTiQ

Size 765.129 MB   0 seeders     Added 2012-04-26 03:00:48

Stream torrent
Starting‥ You need BitLord! Get it from 1BitLord.com
To download or stream you need BitLord. Visit them at BitLord.com
Safe (2012) Hindi DVDSCR XviD MSTiQ\r\n\r\nFormat                                   : AVI\r\n\r\nFormat/Info                              : Audio Video Interleave\r\n\r\nFile size                                : 850 MB\r\n\r\nDuration                                 : 2h 7mn\r\n\r\nOverall bit rate                         : 874 Kbps\r\n\r\nWriting application                      : VirtualDubMod 1.5.10.2 (build 2542/release)\r\n\r\nWriting library                          : VirtualDubMod build 2542/release\r\n\r\n\r\n\r\nVideo:\r\n\r\n\r\n\r\nID                                       : 0\r\n\r\nFormat                                   : MPEG-4 Visual\r\n\r\nFormat profile                           : Advanced Simple@L5\r\n\r\nFormat settings, BVOP                    : 1\r\n\r\nFormat settings, QPel                    : No\r\n\r\nFormat settings, GMC                     : No warppoints\r\n\r\nFormat settings, Matrix                  : Default (H.263)\r\n\r\nMuxing mode                              : Packed bitstream\r\n\r\nCodec ID                                 : XVID\r\n\r\nCodec ID/Hint                            : XviD\r\n\r\nDuration                                 : 2h 7mn\r\n\r\nBit rate                                 : 737 Kbps\r\n\r\nWidth                                    : 704 pixels\r\n\r\nHeight                                   : 296 pixels\r\n\r\nDisplay aspect ratio                     : 2.40:1\r\n\r\nFrame rate                               : 23.976 fps\r\n\r\nColor space                              : YUV\r\n\r\nChroma subsampling                       : 4:2:0\r\n\r\nBit depth                                : 8 bits\r\n\r\nScan type                                : Progressive\r\n\r\nCompression mode                         : Lossy\r\n\r\nBits/(Pixel*Frame)                       : 0.147\r\n\r\nStream size                              : 700 MiB (84%)\r\n\r\nWriting library                          : XviD 62\r\n\r\n\r\n\r\nAudio:\r\n\r\n\r\n\r\nID                                       : 1\r\n\r\nFormat                                   : MPEG Audio\r\n\r\nFormat version                           : Version 1\r\n\r\nFormat profile                           : Layer 3\r\n\r\nMode                                     : Joint stereo\r\n\r\nMode extension                           : MS Stereo\r\n\r\nCodec ID                                 : 55\r\n\r\nCodec ID/Hint                            : MP3\r\n\r\nDuration                                 : 2h 7mn\r\n\r\nBit rate mode                            : Constant\r\n\r\nBit rate                                 : 128 Kbps\r\n\r\nChannel(s)                               : 2 channels\r\n\r\nSampling rate                            : 44.1 KHz\r\n\r\nCompression mode                         : Lossy\r\n\r\nStream size                              : 82.6 MiB (15%)\r\n\r\nAlignment                                : Split accross interleaves\r\n\r\nInterleave, duration                     : 42 ms (1.00 video frame)\r\n\r\nInterleave, preload duration             : 500 ms\r\n\r\nWriting library                          : LAME3.98.2
Safe (2012) Hindi DVDSCR XviD MSTiQ.avi 764.178 MB
sample 814.146 KB
Subs[ENG].srt 136.693 KB
Gathering some info...

Register and log in Isohunt and see no captcha anymore!

4000 symbols left
Hash 017483D0A04DF1EFD85445D25B9E677AB15427B2

Related torrents for "Safe (2012) Hindi DVDSCR XviD MSTiQ"

Torrent search:

screener hindi 2012