Alex Gaudino - Chinatown (h264mp4)

Size 65.745 MB   1 seeders     Added 2012-04-27 02:40:15

Stream torrent
Starting‥ You need BitLord! Get it from 1BitLord.com
To download or stream you need BitLord. Visit them at BitLord.com
General
Format : MPEG-4
Format profile : Base Media
Codec ID : isom
File size : 62.7 MiB
Duration : 2mn 51s
Overall bit rate : 3 076 Kbps
Encoded date : UTC 2012-04-25 06:24:03
Tagged date : UTC 2012-04-25 06:24:03
Video
ID : 1
Format : AVC
Format/Info : Advanced Video Codec
Format profile : High@L3.0
Format settings, CABAC : Yes
Format settings, ReFrames : 2 frames
Codec ID : avc1
Codec ID/Info : Advanced Video Coding
Duration : 2mn 51s
Bit rate mode : Variable
Bit rate : 2 900 Kbps
Maximum bit rate : 11.9 Mbps
Width : 720 pixels
Height : 480 pixels
Display aspect ratio : 16:9
Original display aspect ratio : 16:9
Frame rate mode : Constant
Frame rate : 25.000 fps
Standard : NTSC
Color space : YUV
Chroma subsampling : 4:2:0
Bit depth : 8 bits
Scan type : Progressive
Bits/(Pixel*Frame) : 0.336
Stream size : 61.0 MiB (97%)
Audio
ID : 2
Format : AAC
Format/Info : Advanced Audio Codec
Format profile : LC
Codec ID : 40
Duration : 2mn 50s
Bit rate mode : Variable
Bit rate : 76.1 Kbps
Maximum bit rate : 86.0 Kbps
Channel(s) : 2 channels
Channel positions : Front: L R
Sampling rate : 44.1 KHz
Compression mode : Lossy
Stream size : 1.55 MiB (2%) 
AlexGaudino-Chinatown-musicvideos-hq.net.mp4 65.745 MB
Gathering some info...

Register and log in Isohunt and see no captcha anymore!

4000 symbols left
Hash 0D801F2248BB3A3957F41A1B126DD1A0FB996D87