Think Like a Man (2012) DVDSRC.AC3.XViD.TARGET

Size 26.796 MB   0 seeders     Added 2012-04-27 02:53:46

To download or stream you need BitLord. Visit them at BitLord.com
IMDb: http://www.imdb.com/title/tt1621045/ ------------------------------------------ Think Like a Man (2012) DVDSRC.AC3.XViD.TARGET ---------------------------------------------- Screenshots: ----------- image/ image/ image/ image/ image/ image/ image/ image/ image/ image/ Details: ------- Video ID : 0 Format : MPEG-4 Visual Format profile : AdvancedSimple@L5 Format settings, BVOP : Yes Format settings, QPel : No Format settings, GMC : No warppoints Format settings, Matrix : Custom Codec ID : XVID Codec ID/Hint : XviD Duration : 2h 03mn Bit rate : 1 625 Kbps Width : 720 pixels Height : 304 pixels Display aspect ratio : 2.35:1 Frame rate : 23.976 fps Resolution : 24 bits Colorimetry : 4:2:0 Scan type : Progressive Bits/(Pixel*Frame) : 0.310 Stream size : 690 MiB (99%) Writing library : XviD 58 Audio ID : 1 Format : AC-3 Format/Info : Audio Coding 3 Codec ID : 2000 Duration : 2h 03mn Bit rate mode : Constant Bit rate : 192 Kbps Channel(s) : 2 channels Channel positions : L R Sampling rate : 48.0 KHz Stream size : 147 MiB (11%) Alignment : Aligned on interleaves Interleave, duration : 64 ms (1.53 video frames) Interleave, preload duration : 192 ms ----------------------------------------- Plot: ---- Four friends conspire to turn the tables on their women when they discover the ladies have been using Steve Harvey's relationship advice against them. --------------------------------
Also Look For.txt 443 B
Levin04252012.mp3 26.73 MB
Torrent downloaded from Demonoid.me.txt 46 B
Gathering some info...

Register and log in Isohunt and see no captcha anymore!

4000 symbols left
Hash 9F2E1D50AC74A9C2CAC9F7B73A6A005D6907B0E9