Mere Hindustan Ki Kasam (2011) HDrip Hindi Dubbed

Size 922.172 MB   0 seeders     Added 2012-04-27 15:45:25

Stream torrent
Starting‥ You need BitLord! Get it from BitLord.com
10
To download or stream you need BitLord. Visit them at BitLord.com
[B]Mere Hindustan Ki Kasam (2011) HDrip Hindi Dubbed[/B]
 
image



[B]INFO[/B]

[code]Format : Matroska
Format version : Version 2
File size : 837 MiB
Duration : 1h 55mn
Overall bit rate : 1 011 Kbps
Encoded date : UTC 2012-04-23 23:58:41
Writing application : mkvmerge v5.4.0 ('Piper') built on Mar 10 2012 13:34:39
Writing library : libebml v1.2.3 + libmatroska v1.3.0

Video
ID : 1
Format : MPEG-4 Visual
Format profile : Advanced Simple@L5
Format settings, BVOP : Yes
Format settings, QPel : No
Format settings, GMC : No warppoints
Format settings, Matrix : Default (H.263)
Codec ID : XVID
Codec ID/Hint : XviD
Duration : 1h 55mn
Bit rate : 863 Kbps
Width : 624 pixels
Height : 272 pixels
Display aspect ratio : 2.25:1
Frame rate : 25.000 fps
Color space : YUV
Chroma subsampling : 4:2:0
Bit depth : 8 bits
Scan type : Progressive
Compression mode : Lossy
Bits/(Pixel*Frame) : 0.203
Stream size : 714 MiB (85%)
Title : Mere Hindustan Ki Kasam 2011 Hindi Dubbed (Abdullah) TDT
Writing library : XviD 1.2.1 (UTC 2008-12-04)
Language : Hindi
Default : Yes
Forced : No

Audio
ID : 2
Format : MPEG Audio
Format version : Version 1
Format profile : Layer 2
Muxing mode : Header stripping
Codec ID : A_MPEG/L2
Codec ID/Hint : MP2
Duration : 1h 55mn
Bit rate mode : Constant
Bit rate : 128 Kbps
Channel(s) : 2 channels
Sampling rate : 48.0 KHz
Compression mode : Lossy
Stream size : 106 MiB (13%)
Title : (Abdullah) TDT
Language : Hindi
Default : Yes
Forced : No[/code]


[B]SCREEN SHOTS[/B]
 
image
 
image
 
image
 
image
 
image
 
image
 
image
 
image
 
image



*** PLEASE SEED AFTER DOWNLOAD ***

** DO LIKE A COMMENT IF YA LIKE THIS SHARE **
Mere Hindustan Ki Kasam (2011) HDrip Hindi Dubbed/Mere Hindustan Ki Kasam (2011) HDrip.mkv 877.323 MB
Mere Hindustan Ki Kasam (2011) HDrip Hindi Dubbed/Sample/Mere Hindustan Ki Kasam 2011 [Sample].mkv 16.391 MB
Mere Hindustan Ki Kasam (2011) HDrip Hindi Dubbed/Screenshots/Mere Hindustan Ki Kasam 2.bmp 1.037 MB
Gathering some info...

Register and log in Isohunt and see no captcha anymore!

4000 symbols left
Hash dc92038f49a29aaebaf43dfa30b940a758d2e7b3