Ana Carolina-Multishow Ao Vivo

Size 436.877 MB   27 seeders     Added 2012-04-28 01:36:48

Stream torrent
Starting‥ You need BitLord! Get it from BitLord.com
10
To download or stream you need BitLord. Visit them at BitLord.com
[CENTER][img]image[/img]

[img]image[/img]

[img]image[/img]

[img]image[/img]

[b]Artist: Ana Carolina
Title Of Album: Multishow Ao Vivo
Etichetta: Sony/BMG
Pubblicazione: CD:2008
Genre: Pop
Source: CD
Playing Time: 45.16
Total Size: 290,37 MB
Quality: FLAC+Cue+Log+Cover
Bitrate: Lossless[/b]

[img]image[/img]

[b]1.Cantinho / Fever / Eu sou melhor que você (4:49)
2.Eu comi a Madonna (2:59)
3.Rosas (3:38)
4.Tolerância (3:48)
5.Carvao (3:22)
6.Eu que nao sei quase nada do mar (3:21)
7.Nada te Faltará (3:51)
8.O Cristo de Madeira (3:33)
9.É isso aí (The blower's daughter) (8:18)
10.Ruas de Outono (3:59)
11.Aqui / Quem de nós dois (9:53)
12.Milhares de Sambas (2:16)
13.Cabide (2:02)
14.Um edifício no meio do mundo (3:24)
15.Vai (4:38)[/b]

[img]image[/img]

Recorded at the Credicard Hall in São Paulo, November 24 and November 25, 2007, for the project Multishow Ao Vivo, the show gathers songs consecrated as "Pra Rua Me Levar", "Encostar Na Tua", "Quem de Nós Dois", "Confesso" e "É Isso Aí"; successes studio double album "Dois Quartos", Like "Cantinho", "Eu Comi a Madona", "Carvão", "Nada Te Faltará", "O Cristo de Madeira" and "Rosas", two new songs: "Eu Que Não Sei Quase Nada do Mar" (written in partnership with Jorge Vercilo, recorded by Maria Bethânia), "Cabide" (recorded by Mart'nália) and rewriting "Três" of Marina Lima.

The original design provided for three of the album shows, performed at days 23, 24 and November 25, 2007. The first show was not recorded. In the last show, in turn, Throating song and a remix of roses were not included in the album.

[img]image[/img]

[quote]Exact Audio Copy V1.0 beta 3 from 29. August 2011

EAC extraction logfile from 26. April 2012, 18:54

Ana Carolina / Dois Quartos - Multishow Ao Vivo

Used drive  : HL-DT-STDVDRAM GSA-T40N   Adapter: 0  ID: 0

Read mode               : Secure
Utilize accurate stream : Yes
Defeat audio cache      : Yes
Make use of C2 pointers : No

Read offset correction                      : 667
Overread into Lead-In and Lead-Out          : No
Fill up missing offset samples with silence : Yes
Delete leading and trailing silent blocks   : No
Null samples used in CRC calculations       : Yes
Used interface                              : Native Win32 interface for Win NT & 2000
Gap handling                                : Appended to previous track

Used output format              : User Defined Encoder
Selected bitrate                : 896 kBit/s
Quality                         : High
Add ID3 tag                     : No
Command line compressor         : C:\Program Files\Exact Audio Copy\FLAC\FLAC.EXE
Additional command line options : -8 -V -T "ARTIST=%artist%" -T "TITLE=%title%" -T "ALBUM=%albumtitle%" -T "DATE=%year%" -T "TRACKNUMBER=%tracknr%" -T "GENRE=%genre%" -T "COMMENT=%comment%" -T "BAND=%albuminterpret%" -T "ALBUMARTIST=%albuminterpret%" -T "COMPOSER=%composer%" %haslyrics%--tag-from-file=LYRICS="%lyricsfile%"%haslyrics% -T "DISCNUMBER=%cdnumber%" -T "TOTALDISCS=%totalcds%" -T "TOTALTRACKS=%numtracks%" %hascover%--picture="%coverfile%"%hascover% %source% -o %dest%


TOC of the extracted CD

     Track |   Start  |  Length  | Start sector | End sector 
    ---------------------------------------------------------
        1  |  0:00.00 |  4:49.45 |         0    |    21719   
        2  |  4:49.45 |  2:59.39 |     21720    |    35183   
        3  |  7:49.09 |  3:38.27 |     35184    |    51560   
        4  | 11:27.36 |  3:48.20 |     51561    |    68680   
        5  | 15:15.56 |  3:22.62 |     68681    |    83892   
        6  | 18:38.43 |  3:21.62 |     83893    |    99029   
        7  | 22:00.30 |  3:51.60 |     99030    |   116414   
        8  | 25:52.15 |  3:33.50 |    116415    |   132439   
        9  | 29:25.65 |  8:17.72 |    132440    |   169786   
       10  | 37:43.62 |  3:59.23 |    169787    |   187734   
       11  | 41:43.10 |  9:53.48 |    187735    |   232257   
       12  | 51:36.58 |  2:15.72 |    232258    |   242454   
       13  | 53:52.55 |  2:02.53 |    242455    |   251657   
       14  | 55:55.33 |  3:24.48 |    251658    |   267005   
       15  | 59:20.06 |  4:40.21 |    267006    |   288026   


Track  1

     Filename H:\Nuova cartella\Ana Carolina-Multishow Ao Vivo\(1) Cantinho , Fever , Eu Sou Melhor que Você - Ana Carolina.flac

     Pre-gap length  0:00:02.00

     Peak level 99.9 %
     Extraction speed 1.6 X
     Track quality 100.0 %
     Test CRC CF931EAC
     Copy CRC CF931EAC
     Track not present in AccurateRip database
     Copy OK

Track  2

     Filename H:\Nuova cartella\Ana Carolina-Multishow Ao Vivo\(2) Eu Comi a Madona - Ana Carolina.flac

     Peak level 99.9 %
     Extraction speed 1.3 X
     Track quality 100.0 %
     Test CRC A654A161
     Copy CRC A654A161
     Track not present in AccurateRip database
     Copy OK

Track  3

     Filename H:\Nuova cartella\Ana Carolina-Multishow Ao Vivo\(3) Rosas - Ana Carolina.flac

     Peak level 99.8 %
     Extraction speed 0.9 X
     Track quality 100.0 %
     Test CRC 1FB8C478
     Copy CRC 1FB8C478
     Track not present in AccurateRip database
     Copy OK

Track  4

     Filename H:\Nuova cartella\Ana Carolina-Multishow Ao Vivo\(4) Tolerância - Ana Carolina.flac

     Peak level 100.0 %
     Extraction speed 0.9 X
     Track quality 100.0 %
     Test CRC 47F37E66
     Copy CRC 47F37E66
     Track not present in AccurateRip database
     Copy OK

Track  5

     Filename H:\Nuova cartella\Ana Carolina-Multishow Ao Vivo\(5) Carvão - Ana Carolina.flac

     Peak level 82.5 %
     Extraction speed 1.7 X
     Track quality 99.9 %
     Test CRC 0C931857
     Copy CRC 0C931857
     Track not present in AccurateRip database
     Copy OK

Track  6

     Filename H:\Nuova cartella\Ana Carolina-Multishow Ao Vivo\(6) Eu que não sei Quase Nada do Mar - Ana Carolina.flac

     Peak level 98.9 %
     Extraction speed 1.4 X
     Track quality 99.9 %
     Test CRC D6FD9081
     Copy CRC D6FD9081
     Track not present in AccurateRip database
     Copy OK

Track  7

     Filename H:\Nuova cartella\Ana Carolina-Multishow Ao Vivo\(7) Nada te Faltará - Ana Carolina.flac

     Peak level 100.0 %
     Extraction speed 2.5 X
     Track quality 100.0 %
     Test CRC CC39D2E4
     Copy CRC CC39D2E4
     Track not present in AccurateRip database
     Copy OK

Track  8

     Filename H:\Nuova cartella\Ana Carolina-Multishow Ao Vivo\(8) O Cristo de Madeira - Ana Carolina.flac

     Peak level 100.0 %
     Extraction speed 2.6 X
     Track quality 100.0 %
     Test CRC 429AE1EB
     Copy CRC 429AE1EB
     Track not present in AccurateRip database
     Copy OK

Track  9

     Filename H:\Nuova cartella\Ana Carolina-Multishow Ao Vivo\(9) É Isso aí (The Blower's Daughter) - Ana Carolina.flac

     Peak level 62.5 %
     Extraction speed 2.7 X
     Track quality 100.0 %
     Test CRC 8E130681
     Copy CRC 8E130681
     Track not present in AccurateRip database
     Copy OK

Track 10

     Filename H:\Nuova cartella\Ana Carolina-Multishow Ao Vivo\(10) Ruas de Outono - Ana Carolina.flac

     Peak level 99.1 %
     Extraction speed 0.9 X
     Track quality 100.0 %
     Test CRC 6C26A62E
     Copy CRC 6C26A62E
     Track not present in AccurateRip database
     Copy OK

Track 11

     Filename H:\Nuova cartella\Ana Carolina-Multishow Ao Vivo\(11) Aqui , Quem de Nós Dois - Ana Carolina.flac

     Peak level 99.1 %
     Extraction speed 2.6 X
     Track quality 100.0 %
     Test CRC EEEA0271
     Copy CRC EEEA0271
     Track not present in AccurateRip database
     Copy OK

Track 12

     Filename H:\Nuova cartella\Ana Carolina-Multishow Ao Vivo\(12) Milhares de Samba - Ana Carolina.flac

     Peak level 95.4 %
     Extraction speed 1.1 X
     Track quality 100.0 %
     Test CRC 78737B75
     Copy CRC 78737B75
     Track not present in AccurateRip database
     Copy OK

Track 13

     Filename H:\Nuova cartella\Ana Carolina-Multishow Ao Vivo\(13) Cabide - Ana Carolina.flac

     Peak level 99.3 %
     Extraction speed 1.1 X
     Track quality 100.0 %
     Test CRC AE89E6D9
     Copy CRC AE89E6D9
     Track not present in AccurateRip database
     Copy OK

Track 14

     Filename H:\Nuova cartella\Ana Carolina-Multishow Ao Vivo\(14) Um Edifício no Meio do Mundo - Ana Carolina.flac

     Peak level 99.3 %
     Extraction speed 1.3 X
     Track quality 100.0 %
     Test CRC 8D5B5AAA
     Copy CRC 8D5B5AAA
     Track not present in AccurateRip database
     Copy OK

Track 15

     Filename H:\Nuova cartella\Ana Carolina-Multishow Ao Vivo\(15) Vai - Ana Carolina.flac

     Peak level 99.8 %
     Extraction speed 3.1 X
     Track quality 100.0 %
     Test CRC 198869B9
     Copy CRC 198869B9
     Track not present in AccurateRip database
     Copy OK


None of the tracks are present in the AccurateRip database

No errors occurred

End of status report

==== Log checksum 7D984D4536CDC67A794FAAD4DC2E9B526305CCF9A328F4354196197C8634B059 ====[/quote][/CENTER]
Folder/Ana Carolina - Dois Quartos Ao Vivo - Back.jpg 88.997 KB
Folder/Ana Carolina - Dois Quartos Ao Vivo - CD.gif 81.921 KB
Folder/Ana Carolina - Dois Quartos Ao Vivo - Front.jpg 69.629 KB
Gathering some info...

Register and log in Isohunt and see no captcha anymore!

4000 symbols left
Hash 6971F60B92E35650DF24ED7F3CF99B50684EDF40