Farruko - Titerito (h264mp4)

Size 62.627 MB   2 seeders     Added 2012-04-28 02:42:47

Stream torrent
Starting‥ You need BitLord! Get it from 1BitLord.com
To download or stream you need BitLord. Visit them at BitLord.com
General
Format : MPEG-4
Format profile : Base Media
Codec ID : isom
File size : 59.7 MiB
Duration : 4mn 32s
Overall bit rate : 1 838 Kbps
Encoded date : UTC 2012-04-25 22:29:22
Tagged date : UTC 2012-04-25 22:29:22
Video
ID : 1
Format : AVC
Format/Info : Advanced Video Codec
Format profile : High@L3.0
Format settings, CABAC : Yes
Format settings, ReFrames : 2 frames
Codec ID : avc1
Codec ID/Info : Advanced Video Coding
Duration : 4mn 32s
Bit rate mode : Variable
Bit rate : 1 798 Kbps
Maximum bit rate : 3 443 Kbps
Width : 720 pixels
Height : 480 pixels
Display aspect ratio : 16:9
Original display aspect ratio : 16:9
Frame rate mode : Constant
Frame rate : 23.976 fps
Standard : NTSC
Color space : YUV
Chroma subsampling : 4:2:0
Bit depth : 8 bits
Scan type : Progressive
Bits/(Pixel*Frame) : 0.217
Stream size : 57.2 MiB (96%)
Audio
ID : 2
Format : AAC
Format/Info : Advanced Audio Codec
Format profile : LC
Codec ID : 40
Duration : 4mn 32s
Bit rate mode : Variable
Bit rate : 72.0 Kbps
Maximum bit rate : 82.6 Kbps
Channel(s) : 2 channels
Channel positions : Front: L R
Sampling rate : 44.1 KHz
Compression mode : Lossy
Stream size : 2.36 MiB (4%) 
Farruko-Titerito-musicvideos-hq.net.mp4 62.627 MB
Gathering some info...

Register and log in Isohunt and see no captcha anymore!

4000 symbols left
Hash 74C2DD2FDE10E6739D0BE8908BD484CBC2E6F592