Sergio Medes - The Swinger From Rio

Size 225.743 MB   9 seeders     Added 2012-04-30 01:38:53

Stream torrent
Starting‥ You need BitLord! Get it from 1BitLord.com
10
To download or stream you need BitLord. Visit them at BitLord.com
[CENTER][img]image[/img]

[img]image[/img]

[img]image[/img]

[img]image[/img]

[b]Artist: Sergio Mendes
Title Of Album: The Swinger from Rio
Etichetta: Atlantic
[align=center][b][SIZE=8][color=red]Personnel:
Sergio Mendes (Piano)
Antonio Carlos Jobim (Guitar) - A1,A2,A4,A6-B5
Art Farmer (Trumpet and Flugelhorn) - A2,A3,A5-B1,B5
Phil Woods (Alto Saxophone) - A1,A4-B2Hubert Laws (Flute) - A3,A5-B3,B5Tiao Nieto (Double Bass)
Chico DeSouza (Drums)[/b][/SIZE][/color][/align]
[align=center][b][SIZE=8][color=black]Pubblicazione: LP: 1965 CD:2010
Genre: Jazz
Source: CD
Playing Time: 39.08
Total Size: 215,11 MB
Quality: FLAC+Cue+Log+Info+Cover[Front + Back]
Bitrate: Lossless[/b]

[img]image[/img]

[b]1. Maria Moita (Carlos Lyra & Vinicius de Moraes) 3:31
2. Sambinha Bossa Nova (Antonio Carlos Jobim) 3:12
3. Batida Diferente (Durval Fereira/Mauricio Einhorn) 3:48
4. So Danco Samba (Antonio Carlos Jobim) 3:12
5. Pau Brasil (Sergio Mendes) 3:16
6. The Girl From Ipanema (Antonio Carlos Jobim/Norman Gimbel) 2:53
7. Useless Panorama (Antonio Carlos Jobim) 3:28
8. The Dreamer (Antonio Carlos Jobim/Gene Lees) 4:13
9. Primavera (Carlos Lyra) 2:46
10. Consolaçao (Baden Powell) 3:22
11. Favela (Antonio Carlos Jobim) 5:21[/b]

[img]image[/img]

[b]We have become more familiar with the music of Latin America and especially that
of Brazil in the past year. The new music from Brazil (better known as bossa nova)
has been absorbed into the mainstream of our own music. This is completely natural.
While we have been listening to their music, Latin American musicians have been
listening to ours. Jazz music in particular has been fascinating to them for quite some
time, and it would be accurate to describe bossa nova as a marriage of modern
Brazilian music and American jazz. The music contained in this album is the happy
result of a meeting of Brazilian bossa nova stars and American jazz musicians.

Sergio Mendes, the young man who graces the cover of this LP is one of the
brightest talents to emerge from Brazilian music circles. He possesses a crisp piano
style that clearly dominates all of the performances in this album. The clarity of
Sergio's musical thought is always apparent whether he is soloing, playing ensemble
or accompanying someone else's solo. In addition he inspires some of the finest work
on records by the well known jazz performers, Art Farmer, Phil Woods and Hubert
Laws.

Sergio is accustomed to playing with a country's leading musicians. He became a
professional pianist at the age of sixteen. One year later he organized his own group
to perform at parties and in night clubs in and around his hometown of Niteroi which is
across the bay from the more celebrated Brazilian town of Ipanema. The composer
and musician, Antonio Carlos Jobim, heard Sergio play and was very impressed. He
gave him a great nea'fof encouragement, arid before long Sergio joined the circle of
musicians in Rio who were creating a new musical style that came to be known as
bossa nova.

It is impossible to conceive of greater musical understanding than that which is shown
by Sergio, fluegelhornist Art Farmer, saxophonist Phil Woods and flutist Hubert Laws
in this album. Listening to the way their solos dovetail one could easily assume these
musicians have worked together for many years. Sergio has the remarkable facility of
matching the tonal quality of his instrument to that of the musician with whom he is
playing. Notice for instance that when he and Art Farmer exchange phrases at the end
of Useless Panorama, the sound of their instruments maintain an even flow. On So
Danco Samba and Maria Moita there is a little more bite to Sergio's piano work to match
the drive of Phil Woods' robust saxophone style. Though these musicians may have
been born thousands of miles apart, they are truly kindred spirits.

Sergio's good friend and the man he calls his mentor. Antonio Carlos Jobim, is on hand
for many of the numbers. Better known as the composer of the classic bossa nova
tunes (Desafinado, One Note Samba, etc.), Jobim is also an accomplished guitarist.
Hear how he introduced his composition, Useless Panorama by softly phrasing the
melody. The musicians who make up the rhythm section are members of Sergio's own
trio, Tiao Netto on bass and drummer Chico DeSouza. They keep the front line swinging
in all tempos.[/b]

[img]image[/img]

[img]image[/img]

[quote]Exact Audio Copy V1.0 beta 3 from 29. August 2011

EAC extraction logfile from 28. April 2012, 12:20

Sergio Mendes / The Swinger From Rio

Used drive  : HL-DT-STDVDRAM GSA-T40N   Adapter: 0  ID: 0

Read mode               : Secure
Utilize accurate stream : Yes
Defeat audio cache      : Yes
Make use of C2 pointers : No

Read offset correction                      : 667
Overread into Lead-In and Lead-Out          : No
Fill up missing offset samples with silence : Yes
Delete leading and trailing silent blocks   : No
Null samples used in CRC calculations       : Yes
Used interface                              : Native Win32 interface for Win NT & 2000
Gap handling                                : Appended to previous track

Used output format              : User Defined Encoder
Selected bitrate                : 896 kBit/s
Quality                         : High
Add ID3 tag                     : No
Command line compressor         : C:\Program Files\Exact Audio Copy\FLAC\FLAC.EXE
Additional command line options : -8 -V -T "ARTIST=%artist%" -T "TITLE=%title%" -T "ALBUM=%albumtitle%" -T "DATE=%year%" -T "TRACKNUMBER=%tracknr%" -T "GENRE=%genre%" -T "COMMENT=%comment%" -T "BAND=%albuminterpret%" -T "ALBUMARTIST=%albuminterpret%" -T "COMPOSER=%composer%" %haslyrics%--tag-from-file=LYRICS="%lyricsfile%"%haslyrics% -T "DISCNUMBER=%cdnumber%" -T "TOTALDISCS=%totalcds%" -T "TOTALTRACKS=%numtracks%" %hascover%--picture="%coverfile%"%hascover% %source% -o %dest%


TOC of the extracted CD

     Track |   Start  |  Length  | Start sector | End sector 
    ---------------------------------------------------------
        1  |  0:00.00 |  3:31.37 |         0    |    15861   
        2  |  3:31.37 |  3:12.13 |     15862    |    30274   
        3  |  6:43.50 |  3:48.67 |     30275    |    47441   
        4  | 10:32.42 |  3:12.18 |     47442    |    61859   
        5  | 13:44.60 |  3:16.57 |     61860    |    76616   
        6  | 17:01.42 |  2:53.25 |     76617    |    89616   
        7  | 19:54.67 |  3:28.38 |     89617    |   105254   
        8  | 23:23.30 |  4:13.45 |    105255    |   124274   
        9  | 27:37.00 |  2:46.62 |    124275    |   136786   
       10  | 30:23.62 |  3:22.28 |    136787    |   151964   
       11  | 33:46.15 |  5:22.15 |    151965    |   176129   


Track  1

     Filename H:\MY EAC[.FLAC]\Sergio Medes - The Swinger From Rio\(1) Maria Moita - Sergio Mendes.flac

     Pre-gap length  0:00:02.00

     Peak level 98.8 %
     Extraction speed 1.9 X
     Track quality 99.9 %
     Test CRC 991BC55E
     Copy CRC 991BC55E
     Cannot be verified as accurate (confidence 3)  [E6B8DA7A], AccurateRip returned [47AFAE6F]  (AR v2)
     Copy OK

Track  2

     Filename H:\MY EAC[.FLAC]\Sergio Medes - The Swinger From Rio\(2) Sambinha Bossa Nova - Sergio Mendes.flac

     Pre-gap length  0:00:03.40

     Peak level 63.9 %
     Extraction speed 2.3 X
     Track quality 100.0 %
     Test CRC 68DE56E3
     Copy CRC 68DE56E3
     Cannot be verified as accurate (confidence 3)  [A654348C], AccurateRip returned [6A9BFAFC]  (AR v2)
     Copy OK

Track  3

     Filename H:\MY EAC[.FLAC]\Sergio Medes - The Swinger From Rio\(3) Batida Diferente - Sergio Mendes.flac

     Pre-gap length  0:00:02.40

     Peak level 98.8 %
     Extraction speed 2.5 X
     Track quality 100.0 %
     Test CRC FA2FD4F5
     Copy CRC FA2FD4F5
     Cannot be verified as accurate (confidence 3)  [27EE5E74], AccurateRip returned [8EF26499]  (AR v2)
     Copy OK

Track  4

     Filename H:\MY EAC[.FLAC]\Sergio Medes - The Swinger From Rio\(4) So Danco Samba - Sergio Mendes.flac

     Pre-gap length  0:00:04.42

     Peak level 98.8 %
     Extraction speed 1.9 X
     Track quality 99.9 %
     Test CRC 30E549DA
     Copy CRC 30E549DA
     Cannot be verified as accurate (confidence 3)  [1CEB0BBB], AccurateRip returned [6A64985A]  (AR v2)
     Copy OK

Track  5

     Filename H:\MY EAC[.FLAC]\Sergio Medes - The Swinger From Rio\(5) Pau Brasil - Sergio Mendes.flac

     Pre-gap length  0:00:04.04

     Peak level 98.8 %
     Extraction speed 2.5 X
     Track quality 100.0 %
     Test CRC 13559BB2
     Copy CRC 13559BB2
     Cannot be verified as accurate (confidence 3)  [A14BF855], AccurateRip returned [EBFB17E3]  (AR v2)
     Copy OK

Track  6

     Filename H:\MY EAC[.FLAC]\Sergio Medes - The Swinger From Rio\(6) The Girl From Ipanema - Sergio Mendes.flac

     Pre-gap length  0:00:04.09

     Peak level 66.8 %
     Extraction speed 2.4 X
     Track quality 100.0 %
     Test CRC D6AD67A4
     Copy CRC D6AD67A4
     Cannot be verified as accurate (confidence 3)  [2AE6812A], AccurateRip returned [DE5C7D35]  (AR v2)
     Copy OK

Track  7

     Filename H:\MY EAC[.FLAC]\Sergio Medes - The Swinger From Rio\(7) Useless Panorama - Sergio Mendes.flac

     Pre-gap length  0:00:02.00

     Peak level 50.3 %
     Extraction speed 2.1 X
     Track quality 99.9 %
     Test CRC 9F5EC117
     Copy CRC 9F5EC117
     Cannot be verified as accurate (confidence 3)  [CB213F4D], AccurateRip returned [41F0A2FC]  (AR v2)
     Copy OK

Track  8

     Filename H:\MY EAC[.FLAC]\Sergio Medes - The Swinger From Rio\(8) The Dreamer - Sergio Mendes.flac

     Pre-gap length  0:00:03.68

     Peak level 98.8 %
     Extraction speed 2.4 X
     Track quality 99.9 %
     Test CRC 2E4F04CF
     Copy CRC 2E4F04CF
     Cannot be verified as accurate (confidence 3)  [0C1E2941], AccurateRip returned [AAA10035]  (AR v2)
     Copy OK

Track  9

     Filename H:\MY EAC[.FLAC]\Sergio Medes - The Swinger From Rio\(9) Primavera - Sergio Mendes.flac

     Pre-gap length  0:00:01.33

     Peak level 80.0 %
     Extraction speed 2.9 X
     Track quality 100.0 %
     Test CRC 19AFEA71
     Copy CRC 19AFEA71
     Cannot be verified as accurate (confidence 3)  [2FF575D3], AccurateRip returned [CB92D325]  (AR v2)
     Copy OK

Track 10

     Filename H:\MY EAC[.FLAC]\Sergio Medes - The Swinger From Rio\(10) Consolacao - Sergio Mendes.flac

     Pre-gap length  0:00:05.33

     Peak level 92.5 %
     Extraction speed 3.1 X
     Track quality 100.0 %
     Test CRC 7D01C5DF
     Copy CRC 7D01C5DF
     Cannot be verified as accurate (confidence 3)  [1CBBC35B], AccurateRip returned [9561E5AE]  (AR v2)
     Copy OK

Track 11

     Filename H:\MY EAC[.FLAC]\Sergio Medes - The Swinger From Rio\(11) Favela - Sergio Mendes.flac

     Pre-gap length  0:00:04.77

     Peak level 86.0 %
     Extraction speed 3.6 X
     Track quality 100.0 %
     Test CRC 22DB36A7
     Copy CRC 22DB36A7
     Cannot be verified as accurate (confidence 3)  [7EF07480], AccurateRip returned [F118B6E0]  (AR v2)
     Copy OK


No tracks could be verified as accurate
You may have a different pressing from the one(s) in the database

No errors occurred

End of status report

==== Log checksum 3807F48C33C0738665946DC8A5389D86161FBEEA212626BE9DC769BAA7FFC752 ====[/quote]

[img]image[/img]

[img]image[/img][/CENTER]
Cover/Sans titre 1K.jpg 103.661 KB
Cover/Sans titre 2J.jpg 58.832 KB
(1) Maria Moita - Sergio Mendes.flac 21.881 MB
Gathering some info...

Register and log in Isohunt and see no captcha anymore!

4000 symbols left
Hash E9ECBDEDD5A91A909E92F1FECA5A39AD08FA020B