Haywire

Haywire (1999)

Comedy, Sketch/Improv

Full description

Haywire 2011 1080p BluRay x264 (0.99GB) Exclusive~~~CooL GuY {{a2zRG}}

Size 1.067 GB   0 seeders     Added 2012-04-30 01:57:23

Stream torrent
Starting‥ You need BitLord! Get it from 1BitLord.com
To download or stream you need BitLord. Visit them at BitLord.com
Haywire 2011 1080p BluRay x264 (0.99GB) [Exclusive]~~~[CooL GuY] {{a2zRG}}

[URL=http://nimga.com/v/0213R][IMG]image[/IMG][/URL]

[URL=http://nimga.com/v/jariA][IMG]image[/IMG][/URL]

IMDB :- [URL=http://nimga.com/v/Gt7MQ][IMG]image[/IMG][/URL]


[url]http://www.imdb.com/title/tt1506999/[/url]



General

Complete name                            : Haywire 2011 1080p BluRay x264 (0.99GB) [Exclusive]~~~[CooL GuY] {{a2zRG}}
Format                                   : MPEG-4
Format profile                           : Base Media / Version 2
Codec ID                                 : mp42
File size                                : 1 017 MiB
Duration                                 : 1h 32mn
Overall bit rate mode                    : Variable
Overall bit rate                         : 1 531 Kbps
Encoded date                             : UTC 2012-04-29 07:40:37
Tagged date                              : UTC 2012-04-29 10:15:09
Writing application                      : HandBrake 0.9.5 2011010300

Video

ID                                       : 1
Format                                   : AVC
Format/Info                              : Advanced Video Codec
Format profile                           : Main@L4.0
Format settings, CABAC                   : Yes
Format settings, ReFrames                : 4 frames
Codec ID                                 : avc1
Codec ID/Info                            : Advanced Video Coding
Duration                                 : 1h 32mn
Bit rate mode                            : Variable
Bit rate                                 : 1 367 Kbps
Width                                    : 1 920 pixels
Height                                   : 800 pixels
Display aspect ratio                     : 2.40:1
Frame rate mode                          : Variable
Frame rate                               : 23.976 fps
Minimum frame rate                       : 7.992 fps
Maximum frame rate                       : 23.981 fps
Color space                              : YUV
Chroma subsampling                       : 4:2:0
Bit depth                                : 8 bits
Scan type                                : Progressive
Bits/(Pixel*Frame)                       : 0.037
Stream size                              : 908 MiB (89%)
Writing library                          : x264 core 112


Audio

ID                                       : 2
Format                                   : AAC
Format/Info                              : Advanced Audio Codec
Format profile                           : LC
Codec ID                                 : 40
Duration                                 : 1h 32mn
Bit rate mode                            : Variable
Bit rate                                 : 160 Kbps
Maximum bit rate                         : 240 Kbps
Channel(s)                               : 2 channels
Channel positions                        : Front: L R
Sampling rate                            : 48.0 KHz
Compression mode                         : Lossy
Delay relative to video                  : -167ms
Stream size                              : 106 MiB (10%)



Facebook :-
 
If You Like My Post Then Please Visit :-

[URL=http://nimga.com/v/j0Clv][IMG]image[/IMG][/URL]


Facebook Page :-  [url]http://www.facebook.com/pages/A2Z-RG/278496908901013[/url]

 
Facebook Group :-  [url]http://www.facebook.com/groups/403553456329800/[/url]


Screen Shots :-

[URL=http://nimga.com/v/ej8xS][IMG]image[/IMG][/URL]

[URL=http://nimga.com/v/h7Z0Z][IMG]image[/IMG][/URL]

[URL=http://nimga.com/v/b90a8][IMG]image[/IMG][/URL]

[URL=http://nimga.com/v/ZiBIn][IMG]image[/IMG][/URL]


[URL=http://nimga.com/v/E4T9W][IMG]image[/IMG][/URL]


[URL=http://nimga.com/v/tARlA][IMG]image[/IMG][/URL]
Haywire 2011 1080p BluRay x264 (0.99GB) [Exclusive]~~~[CooL GuY] {{a2zRG}}.m4v 1.067 GB
Haywire 2011 1080p BluRay x264 (0.99GB) [Exclusive]~~~[CooL GuY] {{a2zRG}}.srt 52.558 KB
Cover.jpg 19.509 KB
Gathering some info...

Register and log in Isohunt and see no captcha anymore!

4000 symbols left
Hash 55044E2077C5DE6A9727A7F354E67B0C2D78BD04

Related torrents for "Haywire 2011 1080p BluRay x264 (0.99GB) Exclusive~~~CooL GuY {{a2zRG}}"

Torrent search:

x264 fullhd bd 2011