American.Reunion.2012.Leaked.DVDRip.XviD-CiM

Size 889.639 MB   0 seeders     Added 2012-04-30 10:44:33

To download or stream you need BitLord. Visit them at BitLord.com
American.Reunion.2012.Leaked.DVDRip.XviD-CiM

Screens:
image

http://www.imdb.com/title/tt1605630/

Language: English

Plot: Jim, Michelle, Stifler, and their friends reunite in East Great Falls, Michigan for their high school reunion. 

Infomation:
Format : AVI
Format/Info : Audio Video Interleave
Format profile : OpenDML
File size : 848 MiB
Duration : 1h 53mn
Overall bit rate : 1 648 Kbps
Writing application : MEncoder SVN-r34401-4.2.5
Writing library : MPlayer
 
Video
ID : 0
Format : xvid
Codec ID : xvid
Duration : 1h 53mn
Bit rate : 1 574 Kbps
Width : 862 pixels
Height : 361 pixels
Display aspect ratio : 16:9
Frame rate : 23.976 fps
Bits/(Pixel*Frame) : 0.271
Stream size : 780 MiB (92%)
 
Audio
ID : 1
Format : MPEG Audio
Codec ID : 55
Codec ID/Hint : MP3
Duration : 1h 53mn
Bit rate : 192 Kbps
Channel(s) : 2 channels
Sampling rate : 48.0 KHz
Compression mode : Constant
Stream size : 144 MiB (17%)
Alignment : Aligned on interleaves
Interleave, duration : 128 ms (2.35 video frames)
Interleave, preload duration : 186 ms
 
Source: Leaked retail DVD (perfect a/v/sync quality).
American.Reunion.2012.Leaked.DVDRip.XviD-CiM/American.Reunion.2012.Leaked.DVDRip.XviD-CiM.part2.rar 228.59 MB
American.Reunion.2012.Leaked.DVDRip.XviD-CiM/American.Reunion.2012.Leaked.DVDRip.XviD-CiM.part3.rar 228.59 MB
American.Reunion.2012.Leaked.DVDRip.XviD-CiM/American.Reunion.2012.Leaked.DVDRip.XviD-CiM.part1.rar 228.59 MB
Gathering some info...

Register and log in Isohunt and see no captcha anymore!

4000 symbols left
Hash 0ed5a48ad92069a0bdeca2b629fc4f4ddd179ee7