Rampart 2011 720p BluRay x264 (499MB) [Exclusive][CooL GuY] a2zRG

Size 522.914 MB   0 seeders     Added 2012-05-01 02:59:03

Stream torrent
Starting‥ You need BitLord! Get it from 1BitLord.com
To download or stream you need BitLord. Visit them at BitLord.com
Rampart 2011 720p BluRay x264 (499MB) [Exclusive]~~~[CooL GuY] {{a2zRG}}\r\n\r\n[URL=http://nimga.com/v/0213R][IMG]image[/IMG][/URL]\r\n\r\n[URL=http://nimga.com/v/ra5D8][IMG]image[/IMG][/URL]\r\n\r\n[URL=http://nimga.com/v/Gt7MQ][IMG]image[/IMG][/URL]\r\n\r\n[url]http://www.imdb.com/title/tt1640548/[/url]\r\n\r\n\r\nGeneral\r\n\r\nComplete name                            : Rampart 2011 720p BluRay x264 (499MB) [Exclusive]~~~[CooL GuY] {{a2zRG}}\r\nFormat                                   : MPEG-4\r\nFormat profile                           : Base Media / Version 2\r\nCodec ID                                 : mp42\r\nFile size                                : 499 MiB\r\nDuration                                 : 1h 47mn\r\nOverall bit rate mode                    : Variable\r\nOverall bit rate                         : 646 Kbps\r\nEncoded date                             : UTC 2012-04-29 20:15:16\r\nTagged date                              : UTC 2012-04-29 21:28:32\r\nWriting application                      : HandBrake 0.9.5 2011010300\r\n\r\nVideo\r\n\r\nID                                       : 1\r\nFormat                                   : AVC\r\nFormat/Info                              : Advanced Video Codec\r\nFormat profile                           : Main@L3.1\r\nFormat settings, CABAC                   : Yes\r\nFormat settings, ReFrames                : 4 frames\r\nCodec ID                                 : avc1\r\nCodec ID/Info                            : Advanced Video Coding\r\nDuration                                 : 1h 47mn\r\nBit rate mode                            : Variable\r\nBit rate                                 : 481 Kbps\r\nWidth                                    : 1 280 pixels\r\nHeight                                   : 544 pixels\r\nDisplay aspect ratio                     : 2.35:1\r\nFrame rate mode                          : Variable\r\nFrame rate                               : 23.976 fps\r\nMinimum frame rate                       : 7.992 fps\r\nMaximum frame rate                       : 23.981 fps\r\nColor space                              : YUV\r\nChroma subsampling                       : 4:2:0\r\nBit depth                                : 8 bits\r\nScan type                                : Progressive\r\nBits/(Pixel*Frame)                       : 0.029\r\nStream size                              : 371 MiB (74%)\r\nWriting library                          : x264 core 112\r\n\r\n\r\nAudio\r\n\r\nID                                       : 2\r\nFormat                                   : AAC\r\nFormat/Info                              : Advanced Audio Codec\r\nFormat profile                           : LC\r\nCodec ID                                 : 40\r\nDuration                                 : 1h 47mn\r\nBit rate mode                            : Variable\r\nBit rate                                 : 160 Kbps\r\nMaximum bit rate                         : 225 Kbps\r\nChannel(s)                               : 2 channels\r\nChannel positions                        : Front: L R\r\nSampling rate                            : 44.1 KHz\r\nCompression mode                         : Lossy\r\nDelay relative to video                  : -167ms\r\nStream size                              : 123 MiB (25%)\r\n\r\n\r\n\r\nFacebook :-\r\n\r\nIf You Like My Post Then Please Visit :-\r\n\r\n[URL=http://nimga.com/v/j0Clv][IMG]image[/IMG][/URL]\r\n\r\n\r\nFacebook Page :-  [url]http://www.facebook.com/pages/A2Z-RG/278496908901013[/url]\r\n\r\n\r\nFacebook Group :-  [url]http://www.facebook.com/groups/403553456329800/[/url]\r\n\r\n\r\nScreen Shots :-\r\n\r\n[URL=http://nimga.com/v/sMhUK][IMG]image[/IMG][/URL]\r\n\r\n[URL=http://nimga.com/v/IDfNG][IMG]image[/IMG][/URL]\r\n\r\n[URL=http://nimga.com/v/iGmXV][IMG]image[/IMG][/URL]\r\n\r\n[URL=http://nimga.com/v/fKbR6][IMG]image[/IMG][/URL]\r\n\r\n\r\n[URL=http://nimga.com/v/E4T9W][IMG]image[/IMG][/URL]\r\n\r\n\r\n[URL=http://nimga.com/v/tARlA][IMG]image[/IMG][/URL]
Rampart 2011 720p BluRay x264 (499MB) [Exclusive]~~~[CooL GuY] {{a2zRG}}.m4v 522.797 MB
Rampart 2011 720p BluRay x264 (499MB) [Exclusive]~~~[CooL GuY] {{a2zRG}}.srt 102.833 KB
Cover.jpg 13.026 KB
Gathering some info...

Register and log in Isohunt and see no captcha anymore!

4000 symbols left
Hash 8EA2E4DB46D8338C11FFC659FDEB2A7C92C571D4