imdb
rating

7.2
21 Jump Street

21 Jump Street (2012)

Action, Comedy, Crime

Full description

Jump Street 2012.BRRip.DC.Xvid {1337x}-Noir

Size 902.429 MB   0 seeders     Added 2012-05-01 09:42:54

Stream torrent
Starting‥ You need BitLord! Get it from BitLord.com
To download or stream you need BitLord. Visit them at BitLord.com
Video
ID                                       : 1
Format                                   : AVC
Format/Info                              : Advanced Video Codec
Format profile                           : High@L2.2
Format settings, CABAC                   : Yes
Format settings, ReFrames                : 4 frames
Codec ID                                 : avc1
Codec ID/Info                            : Advanced Video Coding
Duration                                 : 2h 2mn
Bit rate mode                            : Variable
Bit rate                                 : 1 500 Kbps
Width                                    : 720 pixels
Height                                   : 288 pixels
Display aspect ratio                     : 2.500
Frame rate mode                          : Variable
Frame rate                               : 25.000 fps
Minimum frame rate                       : 16.667 fps
Maximum frame rate                       : 25.000 fps
Color space                              : YUV
Chroma subsampling                       : 4:2:0
Bit depth                                : 8 bits
Scan type                                : Progressive
Bits/(Pixel*Frame)                       : 0.289
Stream size                              : 1.28 GiB (65%)
Writing library                          : x264 core 120
Encoded date                             : UTC 2012-04-25 18:52:04
Tagged date                              : UTC 2012-04-25 19:52:04
Color primaries                          : BT.601-6 525, BT.1358 525, BT.1700 NTSC, SMPTE 170M
Transfer characteristics                 : BT.709-5, BT.1361
Matrix coefficients                      : BT.601-6 525, BT.1358 525, BT.1700 NTSC, SMPTE 170M

Audio #1
ID                                       : 2
Format                                   : AAC
Format/Info                              : Advanced Audio Codec
Format profile                           : LC
Codec ID                                 : 40
Duration                                 : 2h 2mn
Bit rate mode                            : Variable
Bit rate                                 : 160 Kbps
Maximum bit rate                         : 184 Kbps
Channel(s)                               : 2 channels
Channel positions                        : Front: L R
Sampling rate                            : 44.1 KHz
Compression mode                         : Lossy
Stream size                              : 140 MiB (7%)
Encoded date                             : UTC 2012-04-25 18:52:04
Tagged date                              : UTC 2012-04-25 19:52:04
21 Jump Street 2012.BRRip.DC.Xvid {1337x}-Noir/21 Jump Street 2012.BRRip.DC.Xvid {1337x}-Noir.avi 902.426 MB
21 Jump Street 2012.BRRip.DC.Xvid {1337x}-Noir/BRRip DC Xvid {1337x}-Noir.nfo 2.616 KB
21 Jump Street 2012.BRRip.DC.Xvid {1337x}-Noir/Torrent downloaded from Demonoid.me.txt 46 B
Gathering some info...

Register and log in Isohunt and see no captcha anymore!

4000 symbols left
Hash 02ba5f0408860f2460e93386e55510e243b682cf

Related torrents for "Jump Street 2012.BRRip.DC.Xvid {1337x}-Noir"

Torrent search:

2012 bd