War Horse 2011 720p BluRay x264 (699MB) Exclusive~~~CooL GuY {{a2zRG}}

Size 733.54 MB   9 seeders     Added 2012-05-02 01:52:03

Stream torrent
Starting‥ You need BitLord! Get it from BitLord.com
10
To download or stream you need BitLord. Visit them at BitLord.com
War Horse 2011 720p BluRay x264 (699MB) [Exclusive]~~~[CooL GuY] {{a2zRG}}

[URL=http://nimga.com/v/0213R][IMG]image[/IMG][/URL]

[URL=http://nimga.com/v/MgOM6][IMG]image[/IMG][/URL]

[URL=http://nimga.com/v/Gt7MQ][IMG]image[/IMG][/URL]

[url]http://www.imdb.com/title/tt1568911/[/url]



General

Complete name                            : War Horse 2011 720p BluRay x264 (699MB) [Exclusive]~~~[CooL GuY] {{a2zRG}}
Format                                   : MPEG-4
Format profile                           : Base Media / Version 2
Codec ID                                 : mp42
File size                                : 699 MiB
Duration                                 : 2h 26mn
Overall bit rate mode                    : Variable
Overall bit rate                         : 667 Kbps
Encoded date                             : UTC 2012-04-30 04:03:02
Tagged date                              : UTC 2012-04-30 05:44:11
Writing application                      : HandBrake 0.9.5 2011010300

Video

ID                                       : 1
Format                                   : AVC
Format/Info                              : Advanced Video Codec
Format profile                           : Main@L3.1
Format settings, CABAC                   : Yes
Format settings, ReFrames                : 4 frames
Codec ID                                 : avc1
Codec ID/Info                            : Advanced Video Coding
Duration                                 : 2h 26mn
Bit rate mode                            : Variable
Bit rate                                 : 502 Kbps
Width                                    : 1 280 pixels
Height                                   : 528 pixels
Display aspect ratio                     : 2.40:1
Frame rate mode                          : Variable
Frame rate                               : 23.976 fps
Minimum frame rate                       : 7.992 fps
Maximum frame rate                       : 23.981 fps
Color space                              : YUV
Chroma subsampling                       : 4:2:0
Bit depth                                : 8 bits
Scan type                                : Progressive
Bits/(Pixel*Frame)                       : 0.031
Stream size                              : 526 MiB (75%)
Writing library                          : x264 core 112


Audio

ID                                       : 2
Format                                   : AAC
Format/Info                              : Advanced Audio Codec
Format profile                           : LC
Codec ID                                 : 40
Duration                                 : 2h 26mn
Bit rate mode                            : Variable
Bit rate                                 : 160 Kbps
Maximum bit rate                         : 311 Kbps
Channel(s)                               : 2 channels
Channel positions                        : Front: L R
Sampling rate                            : 48.0 KHz
Compression mode                         : Lossy
Delay relative to video                  : -167ms
Stream size                              : 168 MiB (24%)



Facebook :-

If You Like My Post Then Please Visit :-

[URL=http://nimga.com/v/j0Clv][IMG]image[/IMG][/URL]


Facebook Page :-  [url]http://www.facebook.com/pages/A2Z-RG/278496908901013[/url]


Facebook Group :-  [url]http://www.facebook.com/groups/403553456329800/[/url]


Screen Shots :-

[URL=http://nimga.com/v/Aj8J3][IMG]image[/IMG][/URL]

[URL=http://nimga.com/v/PsP2D][IMG]image[/IMG][/URL]

[URL=http://nimga.com/v/14clk][IMG]image[/IMG][/URL]

[URL=http://nimga.com/v/sPLyV][IMG]image[/IMG][/URL]



[URL=http://nimga.com/v/E4T9W][IMG]image[/IMG][/URL]


[URL=http://nimga.com/v/tARlA][IMG]image[/IMG][/URL]
AhaShare.com.txt 59 B
Cover.jpg 13.349 KB
If You Like My Work Then Like Me On Facebook.txt 253 B
Gathering some info...

Register and log in Isohunt and see no captcha anymore!

4000 symbols left
Hash CDD252EE08C991F1C6CBB1E7FC7C7B975FC9CDF3