Carlos

Carlos (2010)

Crime, Drama, History, Thriller

Full description

Carlos 2010 Miniserie 3DVDrip English Klam

Size 5.514 GB   0 seeders     Added 2012-05-02 02:52:18

Stream torrent
Starting‥ You need BitLord! Get it from 1BitLord.com
To download or stream you need BitLord. Visit them at BitLord.com
[img] image[/img]\r\n\r\nWith: Édgar Ramírez, Alexander Beyer and Nora von Waldstätten\r\n\r\nMet Engelse srt ondertitel indien nodig ja/nee,\r\nDit is het verhaal van de Venezolaanse revolutionair Ilich Ramirez Sanchez, die een wereldwijde terroristische organisatie oprichtte en in 1975 het OPEC hoofdkwartier binnenviel, vooraleer hij in 1994 door de Franse politie werd gearresteerd. Twintig jaar lang was hij bekend onder een andere naam, de terrorist Carlos the Jackal.\r\n\r\nWith Soft English srt Subs when needed yes/no,\r\nThe story of Venezuelan revolutionary Ilich Ramírez Sánchez, who founded a worldwide terrorist organization and raided the 1975 OPEC meeting.\r\n\r\nhttp://www.imdb.com/title/tt1321865	\r\n\r\n[COLOR=#3300FF]------------------------ Dutch Friends ------------------------\r\n---------------------------------------------------------------\r\n- Bezoek ook eens mijn vrienden op:  http://www.Film-Test.nl --\r\n----- voor mijn Nederlandse Sync. ondertitels ---- en meer ----\r\n------- http://www.Film-Test.nl ---- voor Films en meer -------\r\n---------------------------------------------------------------[/COLOR]\r\n\r\nGeneral:\r\n\r\nComplete name                    : Carlos\\Part01.avi\r\nFormat                           : AVI\r\nFormat/Info                      : Audio Video Interleave\r\nFile size                        : 1.65 GiB\r\nDuration                         : 1h 39mn\r\nOverall bit rate                 : 2 362 Kbps\r\n\r\nVideo:\r\n\r\nFormat                           : MPEG-4 Visual\r\nFormat profile                   : Simple@L3\r\nFormat settings, BVOP            : No\r\nFormat settings, QPel            : No\r\nFormat settings, GMC             : No warppoints\r\nFormat settings, Matrix          : Default (H.263)\r\nCodec ID                         : XVID\r\nCodec ID/Hint                    : XviD\r\nDuration                         : 1h 39mn\r\nBit rate                         : 1 903 Kbps\r\nWidth                            : 720 pixels\r\nHeight                           : 304 pixels\r\nDisplay aspect ratio             : 2.35:1\r\nFrame rate                       : 25.000 fps\r\nColor space                      : YUV\r\nChroma subsampling               : 4:2:0\r\nBit depth                        : 8 bits\r\nScan type                        : Progressive\r\nCompression mode                 : Lossy\r\nBits/(Pixel*Frame)               : 0.348\r\nStream size                      : 1.33 GiB (81%)\r\nWriting library                  : XviD 1.1.2 (UTC 2006-11-01)\r\n\r\nAudio:\r\n\r\nFormat                           : AC-3\r\nFormat/Info                      : Audio Coding 3\r\nMode extension                   : CM (complete main)\r\nCodec ID                         : 2000\r\nDuration                         : 1h 39mn\r\nBit rate mode                    : Constant\r\nBit rate                         : 448 Kbps\r\nChannel(s)                       : 6 channels\r\nChannel positions                : Front: L C R, Side: L R, LFE\r\nSampling rate                    : 48.0 KHz\r\nBit depth                        : 16 bits\r\nCompression mode                 : Lossy\r\nStream size                      : 320 MiB (19%)\r\nAlignment                        : Aligned on interleaves\r\nInterleave, duration             : 32 ms (0.80 video frame)
Cover/Carlos.jpg 74.358 KB
New Dutch Site.txt 117 B
Part01.avi 1.767 GB
Gathering some info...

Register and log in Isohunt and see no captcha anymore!

4000 symbols left
Hash 6A822342CAE1610D4F90020F4EFC1AEA637B2825

Related torrents for "Carlos 2010 Miniserie 3DVDrip English Klam"

Torrent search:

english 2010