Chai Lai Angels Dangerous Flowers (2006) DvdRip Dual Audio Japane-Hindi Exclusive~~~CooL GuY {{a2zRG}}

Size 790.11 MB   0 seeders     Added 2012-05-03 01:53:38

Stream torrent
Starting‥ You need BitLord! Get it from BitLord.com
To download or stream you need BitLord. Visit them at BitLord.com
Chai Lai Angels Dangerous Flowers (2006) DvdRip [Dual Audio] [Japane-Hindi]  [Exclusive]~~~[CooL GuY] {{a2zRG}}

[URL=http://nimga.com/v/0213R][IMG]image[/IMG][/URL]

[URL=http://nimga.com/v/2cxOo][IMG]image[/IMG][/URL]

[URL=http://nimga.com/v/Gt7MQ][IMG]image[/IMG][/URL]

[url]http://www.imdb.com/title/tt0756204/[/url]



General

Complete name                            : Chai Lai Angels Dangerous Flowers (2006) DvdRip [Dual Audio] [Japane-Hindi]  [Exclusive]~~~[CooL GuY] {{a2zRG}}
Format                                   : MPEG-4
Format profile                           : Base Media / Version 2
Codec ID                                 : mp42
File size                                : 753 MiB
Duration                                 : 1h 39mn
Overall bit rate mode                    : Variable
Overall bit rate                         : 1 063 Kbps
Encoded date                             : UTC 2012-05-02 13:16:17
Tagged date                              : UTC 2012-05-02 14:11:39
Writing application                      : HandBrake 0.9.5 2011010300

Video
ID                                       : 1
Format                                   : AVC
Format/Info                              : Advanced Video Codec
Format profile                           : Main@L3.0
Format settings, CABAC                   : Yes
Format settings, ReFrames                : 4 frames
Codec ID                                 : avc1
Codec ID/Info                            : Advanced Video Coding
Duration                                 : 1h 39mn
Bit rate mode                            : Variable
Bit rate                                 : 739 Kbps
Width                                    : 720 pixels
Height                                   : 464 pixels
Display aspect ratio                     : 1.552
Frame rate mode                          : Variable
Frame rate                               : 29.970 fps
Minimum frame rate                       : 29.412 fps
Maximum frame rate                       : 30.303 fps
Color space                              : YUV
Chroma subsampling                       : 4:2:0
Bit depth                                : 8 bits
Scan type                                : Progressive
Bits/(Pixel*Frame)                       : 0.074
Stream size                              : 524 MiB (70%)
Writing library                          : x264 core 112


Audio #1

ID                                       : 2
Format                                   : AAC
Format/Info                              : Advanced Audio Codec
Format profile                           : LC
Codec ID                                 : 40
Duration                                 : 1h 39mn
Bit rate mode                            : Variable
Bit rate                                 : 160 Kbps
Maximum bit rate                         : 260 Kbps
Channel(s)                               : 2 channels
Channel positions                        : Front: L R
Sampling rate                            : 44.1 KHz
Compression mode                         : Lossy
Delay relative to video                  : -67ms
Stream size                              : 113 MiB (15%)
Language                                 : Hindi

Audio #2

ID                                       : 3
Format                                   : AAC
Format/Info                              : Advanced Audio Codec
Format profile                           : LC
Codec ID                                 : 40
Duration                                 : 1h 39mn
Bit rate mode                            : Variable
Bit rate                                 : 156 Kbps
Maximum bit rate                         : 203 Kbps
Channel(s)                               : 2 channels
Channel positions                        : Front: L R
Sampling rate                            : 44.1 KHz
Compression mode                         : Lossy
Delay relative to video                  : -67ms
Stream size                              : 110 MiB (15%)
Language                                 : Japanese




Facebook :-

If You Like My Post Then Please Visit :-

[URL=http://nimga.com/v/j0Clv][IMG]image[/IMG][/URL]


Facebook Page :-  [url]http://www.facebook.com/pages/A2Z-RG/278496908901013[/url]


Facebook Group :-  [url]http://www.facebook.com/groups/403553456329800/[/url]


Screen Shots :-

[URL=http://nimga.com/v/Rfy33][IMG]image[/IMG][/URL]

[URL=http://nimga.com/v/R2o27][IMG]image[/IMG][/URL]

[URL=http://nimga.com/v/AR0j9][IMG]image[/IMG][/URL]

[URL=http://nimga.com/v/P237S][IMG]image[/IMG][/URL]


[URL=http://nimga.com/v/E4T9W][IMG]image[/IMG][/URL]


[URL=http://nimga.com/v/tARlA][IMG]image[/IMG][/URL]
Chai Lai Angels Dangerous Flowers (2006) DvdRip [Dual Audio] [Japane-Hindi] [Exclusive]~~~[CooL GuY] {{a2zRG}}.m4v 790.097 MB
Cover.jpg 12.16 KB
Torrent Downloaded From ExtraTorrent.com.txt 353 B
Gathering some info...

Register and log in Isohunt and see no captcha anymore!

4000 symbols left
Hash F19BA41D419BD6C5FC876F66FCAAD56B98F27378