imdb
rating

6.3
Mother's Day

Mother's Day (2010)

Crime, Drama, Horror, Thriller

Full description

Mothers Day (2010) DVDRip XviD SPARKS

Size 997.945 MB   0 seeders     Added 2012-05-04 22:26:11

Stream torrent
Starting‥ You need BitLord! Get it from BitLord.com
To download or stream you need BitLord. Visit them at BitLord.com
Format                           : AVI
Format/Info                      : Audio Video Interleave
Format profile                   : OpenDML
File size                        : 1.68 GiB
Duration                         : 1h 57mn
Overall bit rate                 : 2 049 Kbps
Writing application              : VirtualDubMod 1.5.10.2 (build 2542/release)
Writing library                  : VirtualDubMod build 2542/release
Original source form             : MAX TORRENTZ
Copyright                        : SIGISMUNT



Video
ID                               : 0
Format                           : MPEG-4 Visual
Format profile                   : AdvancedSimple@L5
Format settings, BVOP            : Yes
Format settings, QPel            : No
Format settings, GMC             : No warppoints
Format settings, Matrix          : Custom
Codec ID                         : XVID
Codec ID/Hint                    : XviD
Duration                         : 1h 57mn
Bit rate                         : 1 862 Kbps
Width                            : 720 pixels
Height                           : 304 pixels
Display aspect ratio             : 2.35:1
Frame rate                       : 23.976 fps
Resolution                       : 24 bits
Colorimetry                      : 4:2:0
Scan type                        : Progressive
Bits/(Pixel*Frame)               : 0.355
Stream size                      : 1.52 GiB (91%)
Writing library                  : XviD 1.2.0.dev47 (UTC 2006-11-01)



Audio
ID                               : 1
Format                           : AC-3
Format/Info                      : Audio Coding 3
Codec ID                         : 2000
Duration                         : 1h 57mn
Bit rate mode                    : Constant
Bit rate                         : 192 Kbps
Channel(s)                       : 2 channels
Channel positions                : L R
Sampling rate                    : 48.0 KHz
Stream size                      : 152 MiB (9%)
Alignment                        : Aligned on interleaves
Interleave, duration             : 68 ms (1.62 video frames)
Interleave, preload duration     : 192 ms


Plot:

The sadistic members of a villainous family return to their childhood home to terrorize the new home owners and their guests.


Source: DVD (perfect a/v/sync good quality,sample included)
This torrent is not seedbox supported,please seed it,


http://www.imdb.com/media/rm1847703040/tt1434435
http://www.imdb.com/media/rm1830925824/tt1434435
http://www.imdb.com/media/rm1814148608/tt1434435
Mothers Day (2010) DVDRip XviD SPARKS/Mothers Day (2010) DVDRip XviD SPARKS.avi 994.948 MB
Mothers Day (2010) DVDRip XviD SPARKS/MPP-ETRG.nfo 2.875 KB
Mothers Day (2010) DVDRip XviD SPARKS/sample 2.994 MB
Gathering some info...

Register and log in Isohunt and see no captcha anymore!

4000 symbols left
Hash d14e32b68214956f7ec51892f510cafdfd39c46a

Related torrents for "Mothers Day (2010) DVDRip XviD SPARKS"

Torrent search:

dvdrip 2010