Chronicle 2012 1080p BRRip x264 (0.99GB) Exclusive~~~CooL GuY {{a2zRG}}

Size 1.066 GB   7 seeders     Added 2012-05-05 01:33:16

Stream torrent
Starting‥ You need BitLord! Get it from BitLord.com
To download or stream you need BitLord. Visit them at BitLord.com
Chronicle 2012 1080p BRRip x264 (0.99GB) [Exclusive]~~~[CooL GuY] {{a2zRG}}

[URL=http://nimga.com/v/taWmH][IMG]image[/IMG][/URL]

[URL=http://nimga.com/v/SQTq5][IMG]image[/IMG][/URL]

[URL=http://nimga.com/v/Gt7MQ][IMG]image[/IMG][/URL]

[url]http://www.imdb.com/title/tt1706593/[/url]


General

Complete name                            : Chronicle 2012 1080p BRRip x264 (0.99GB) [Exclusive]~~~[CooL GuY] {{a2zRG}}
Format                                   : MPEG-4
Format profile                           : Base Media / Version 2
Codec ID                                 : mp42
File size                                : 1 017 MiB
Duration                                 : 1h 29mn
Overall bit rate mode                    : Variable
Overall bit rate                         : 1 588 Kbps
Encoded date                             : UTC 2012-05-02 20:41:10
Tagged date                              : UTC 2012-05-02 23:46:10
Writing application                      : HandBrake 0.9.5 2011010300

Video

ID                                       : 1
Format                                   : AVC
Format/Info                              : Advanced Video Codec
Format profile                           : Main@L4.0
Format settings, CABAC                   : Yes
Format settings, ReFrames                : 4 frames
Codec ID                                 : avc1
Codec ID/Info                            : Advanced Video Coding
Duration                                 : 1h 29mn
Bit rate mode                            : Variable
Bit rate                                 : 1 424 Kbps
Width                                    : 1 920 pixels
Height                                   : 1 040 pixels
Display aspect ratio                     : 16:9
Frame rate mode                          : Variable
Frame rate                               : 23.976 fps
Minimum frame rate                       : 7.992 fps
Maximum frame rate                       : 23.981 fps
Color space                              : YUV
Chroma subsampling                       : 4:2:0
Bit depth                                : 8 bits
Scan type                                : Progressive
Bits/(Pixel*Frame)                       : 0.030
Stream size                              : 911 MiB (90%)
Writing library                          : x264 core 112

Audio

ID                                       : 2
Format                                   : AAC
Format/Info                              : Advanced Audio Codec
Format profile                           : LC
Codec ID                                 : 40
Duration                                 : 1h 29mn
Bit rate mode                            : Variable
Bit rate                                 : 160 Kbps
Maximum bit rate                         : 284 Kbps
Channel(s)                               : 2 channels
Channel positions                        : Front: L R
Sampling rate                            : 44.1 KHz
Compression mode                         : Lossy
Delay relative to video                  : -167ms
Stream size                              : 102 MiB (10%)


Facebook :-

If You Like My Post Then Please Visit :-

[URL=http://nimga.com/v/j0Clv][IMG]image[/IMG][/URL]


Facebook Page :-  [url]http://www.facebook.com/pages/A2Z-RG/278496908901013[/url]


Facebook Group :-  [url]http://www.facebook.com/groups/403553456329800/[/url]


Screen Shots :-

[URL=http://nimga.com/v/i7evM][IMG]image[/IMG][/URL]

[URL=http://nimga.com/v/TzNDR][IMG]image[/IMG][/URL]

[URL=http://nimga.com/v/8XI8H][IMG]image[/IMG][/URL]

[URL=http://nimga.com/v/AYFof][IMG]image[/IMG][/URL]



[URL=http://nimga.com/v/E4T9W][IMG]image[/IMG][/URL]


[URL=http://nimga.com/v/tARlA][IMG]image[/IMG][/URL]
AhaShare.com.txt 59 B
Chronicle 2012 1080p BRRip x264 (0.99GB) [Exclusive]~~~[CooL GuY] {{a2zRG}}.m4v 1.066 GB
Chronicle.2012.1080p.BrRip.x264.YIFY.srt 102.201 KB
Gathering some info...

Register and log in Isohunt and see no captcha anymore!

4000 symbols left
Hash F0F9A136B5C69645DB6B163C866FA771DAF68CD3