Mean Girls 2 2011 DVDRip x264 (349MB) Exclusive~~~CooL GuY {{a2zRG}}

Size 367.555 MB   5 seeders     Added 2012-05-06 01:30:23

Stream torrent
Starting‚Ä• You need BitLord! Get it from BitLord.com
To download or stream you need BitLord. Visit them at BitLord.com
Mean Girls 2 2011 DVDRip x264 (349MB) [Exclusive]~~~[CooL GuY] {{a2zRG}}

[URL=http://nimga.com/v/0213R][IMG]image[/IMG][/URL]

[URL=http://nimga.com/v/5cps9][IMG]image[/IMG][/URL]

[URL=http://nimga.com/v/Gt7MQ][IMG]image[/IMG][/URL]

[url]http://www.imdb.com/title/tt1679235/[/url]

Video Source :- Ganool Thank You!!!

General

Complete name                            : Mean Girls 2 2011 DVDRip x264 (349MB) [Exclusive]~~~[CooL GuY] {{a2zRG}}
Format                                   : MPEG-4
Format profile                           : Base Media / Version 2
Codec ID                                 : mp42
File size                                : 351 MiB
Duration                                 : 1h 32mn
Overall bit rate mode                    : Variable
Overall bit rate                         : 528 Kbps
Encoded date                             : UTC 2012-05-05 14:14:56
Tagged date                              : UTC 2012-05-05 14:50:23
Writing application                      : HandBrake 0.9.5 2011010300

Video

ID                                       : 1
Format                                   : AVC
Format/Info                              : Advanced Video Codec
Format profile                           : Main@L3.0
Format settings, CABAC                   : Yes
Format settings, ReFrames                : 4 frames
Codec ID                                 : avc1
Codec ID/Info                            : Advanced Video Coding
Duration                                 : 1h 32mn
Bit rate mode                            : Variable
Bit rate                                 : 363 Kbps
Width                                    : 720 pixels
Height                                   : 400 pixels
Display aspect ratio                     : 16:9
Frame rate mode                          : Variable
Frame rate                               : 23.976 fps
Minimum frame rate                       : 23.810 fps
Maximum frame rate                       : 24.390 fps
Color space                              : YUV
Chroma subsampling                       : 4:2:0
Bit depth                                : 8 bits
Scan type                                : Progressive
Bits/(Pixel*Frame)                       : 0.053
Stream size                              : 241 MiB (69%)
Writing library                          : x264 core 112


Audio

ID                                       : 2
Format                                   : AAC
Format/Info                              : Advanced Audio Codec
Format profile                           : LC
Codec ID                                 : 40
Duration                                 : 1h 32mn
Bit rate mode                            : Variable
Bit rate                                 : 160 Kbps
Maximum bit rate                         : 258 Kbps
Channel(s)                               : 2 channels
Channel positions                        : Front: L R
Sampling rate                            : 44.1 KHz
Compression mode                         : Lossy
Delay relative to video                  : -83ms
Stream size                              : 106 MiB (30%)



Facebook :-

If You Like My Post Then Please Visit :-

[URL=http://nimga.com/v/j0Clv][IMG]image[/IMG][/URL]


Facebook Page :-  [url]http://www.facebook.com/pages/A2Z-RG/278496908901013[/url]


Facebook Group :-  [url]http://www.facebook.com/groups/403553456329800/[/url]


Screen Shots :-

[URL=http://nimga.com/v/GTsfX][IMG]image[/IMG][/URL]

[URL=http://nimga.com/v/aLYdL][IMG]image[/IMG][/URL]

[URL=http://nimga.com/v/Pz1qk][IMG]image[/IMG][/URL]

[URL=http://nimga.com/v/ZBb9h][IMG]image[/IMG][/URL]


[URL=http://nimga.com/v/E4T9W][IMG]image[/IMG][/URL]


[URL=http://nimga.com/v/tARlA][IMG]image[/IMG][/URL]
AhaShare.com.txt 59 B
Cover.jpg 19.811 KB
If You Like My Work Then Like Me On Facebook.txt 253 B
Gathering some info...

Register and log in Isohunt and see no captcha anymore!

4000 symbols left
Hash 63746AC028ECE4EC3EDED92721F93BED3BD59859