Dolfje Weerwolfje 2011 DVDrip Dutch Klam

Size 1.888 GB   5 seeders     Added 2012-05-06 02:55:45

Stream torrent
Starting‥ You need BitLord! Get it from BitLord.com
To download or stream you need BitLord. Visit them at BitLord.com
[img] image[/img]

With: Ole Kroes, Kim van Kooten and Remko Vrijdag

Nederlands gesproken,
Als de zachtaardige Dolfje op de nacht van zijn zevende verjaardag plotseling verandert in een wit pluizig weerwolfje, weet hij niet wat hem overkomt. Dolfje worstelt met zichzelf omdat het onbevangen wolfje ’s nachts tot heel andere dingen in staat is dan de verlegen jongen overdag. Zal het hem lukken zichzelf te accepteren zoals hij is? Gebaseerd op de gelijknamige boekenreeks van Paul van Loon.

Dutch spoken,
Dolfje Weerwolfje is based on the first book of the immensely popular Dolfje Weerwolfje-series. The story is about an adopted boy who becomes a werewolf on his 7th birthday. Only for 3 days during full moon and only during the night. In the movie he has to deal with the transformations, the good parts and the bad parts of it. In the end it all turn out for the best after he meets his granddad, his adoptive parents do really love him and his brother is the best in the world.

http://www.imdb.com/title/tt1931421

[COLOR=#3300FF]------------------------ Dutch Friends ------------------------
---------------------------------------------------------------
- Bezoek ook eens mijn vrienden op:  http://www.Film-Test.nl --
----- voor mijn Nederlandse Sync. ondertitels ---- en meer ----
------- http://www.Film-Test.nl ---- voor Films en meer -------
---------------------------------------------------------------
[/COLOR]
General:

Complete name                    : Dolfje Weerwolfje\Dolfje Weerwolfje.avi
Format                           : AVI
Format/Info                      : Audio Video Interleave
File size                        : 1.76 GiB
Duration                         : 1h 31mn
Overall bit rate                 : 2 766 Kbps

Video:

Format                           : MPEG-4 Visual
Format profile                   : Simple@L3
Format settings, BVOP            : No
Format settings, QPel            : No
Format settings, GMC             : No warppoints
Format settings, Matrix          : Default (H.263)
Codec ID                         : XVID
Codec ID/Hint                    : XviD
Duration                         : 1h 31mn
Bit rate                         : 2 308 Kbps
Width                            : 720 pixels
Height                           : 304 pixels
Display aspect ratio             : 2.35:1
Frame rate                       : 25.000 fps
Color space                      : YUV
Chroma subsampling               : 4:2:0
Bit depth                        : 8 bits
Scan type                        : Progressive
Compression mode                 : Lossy
Bits/(Pixel*Frame)               : 0.422
Stream size                      : 1.47 GiB (83%)
Writing library                  : XviD 1.1.2 (UTC 2006-11-01)

Audio:

Format                           : AC-3
Format/Info                      : Audio Coding 3
Mode extension                   : CM (complete main)
Codec ID                         : 2000
Duration                         : 1h 30mn
Bit rate mode                    : Constant
Bit rate                         : 448 Kbps
Channel(s)                       : 6 channels
Channel positions                : Front: L C R, Side: L R, LFE
Sampling rate                    : 48.0 KHz
Bit depth                        : 16 bits
Compression mode                 : Lossy
Stream size                      : 291 MiB (16%)
Alignment                        : Aligned on interleaves
Interleave, duration             : 32 ms (0.80 video frame)
Cover/www.Film-Test.nl.JPG 34.175 KB
Dolfje Weerwolfje.avi 1.888 GB
New Dutch Site.txt 117 B
Gathering some info...

Register and log in Isohunt and see no captcha anymore!

4000 symbols left
Hash C9DEA55983B107A4D1D56161ADC18488F2733BD7