Justin Bieber - Boyfriend HD 1080p 2012

Size 123.444 MB   2 seeders     Added 2012-05-06 14:44:39

Stream torrent
Starting‥ You need BitLord! Get it from BitLord.com
10
To download or stream you need BitLord. Visit them at BitLord.com
Justin Bieber - Boyfriend HD 1080p 2012 Video ID : 1 Format : AVC Format/Info : Advanced Video Codec Format profile : High@L4.0 Format settings, CABAC : Yes Format settings, ReFrames : 1 frame Codec ID : avc1 Codec ID/Info : Advanced Video Coding Duration : 3mn 30s Bit rate : 4 543 Kbps Maximum bit rate : 8 185 Kbps Width : 1 920 pixels Height : 1 080 pixels Display aspect ratio : 16:9 Frame rate mode : Constant Frame rate : 23.976 fps Color space : YUV Chroma subsampling : 4:2:0 Bit depth : 8 bits Scan type : Progressive Bits/(Pixel*Frame) : 0.091 Stream size : 114 MiB (97%) Audio ID : 2 Format : AAC Format/Info : Advanced Audio Codec Format version : Version 4 Format profile : LC Format settings, SBR : No Codec ID : 40 Duration : 3mn 30s Bit rate mode : Variable Bit rate : 144 Kbps Maximum bit rate : 222 Kbps Channel(s) : 2 channels Channel positions : Front: L R Sampling rate : 44.1 KHz Stream size : 3.67 MiB (3%) Screens: image image image image image
Justin Bieber - Boyfriend HD 1080p 2012 - ETA/Justin Bieber - Boyfriend HD 1080p 2012 - ETA.mp4 123.444 MB
Justin Bieber - Boyfriend HD 1080p 2012 - ETA/Info.txt 66 B
Gathering some info...

Register and log in Isohunt and see no captcha anymore!

4000 symbols left
Hash b43ef8f66e09a6296f3c480a06ab646190110e8b

Related torrents for "Justin Bieber - Boyfriend HD 1080p 2012"

Torrent search:

hd 2012 fullhd