imdb
rating

3.0
Robotropolis

Robotropolis (2011)

Action, Adventure, Science Fiction, Thriller

Full description
quality   dvdrip dvdr bd x264 fullhd hd

Robotropolis 2011 DVDrip English Klam

Size 1.652 GB   5 seeders     Added 2012-05-07 02:53:44

Stream torrent
Starting‥ You need BitLord! Get it from BitLord.com
To download or stream you need BitLord. Visit them at BitLord.com
[img] image[/img]\r\n\r\nWith: Zoe Naylor, Graham Sibley and Edward Foy\r\n\r\nEen groep verslaggevers maakt een verhaal over robots op een afgelegen eiland genaamd New Town. Alles op het eiland wordt onderhouden door robots. Ze werken samen met de mensen, spelen met hen en brengen zelfs de kinderen naar school. Het lijkt een perfecte plek voor iedereen. Totdat een van de robots doordraait en een man vermoordt tijdens een voetbalwedstrijd. De verslaggevers moeten nu niet alleen een verhaal maken maar ook proberen in leven te blijven. Ondertussen komen de andere robots ook in opstand en starten ze een jacht op mensen.\r\n\r\nA group of reporters are covering the unveiling of a new facility that is completely maintained by robot prototypes... \r\n\r\nhttp://www.imdb.com/title/tt1754438	\r\n\r\n[COLOR=#3300FF]------------------------ Dutch Friends ------------------------\r\n---------------------------------------------------------------\r\n- Bezoek ook eens mijn vrienden op:  http://www.Film-Test.nl --\r\n----- voor mijn Nederlandse Sync. ondertitels ---- en meer ----\r\n------- http://www.Film-Test.nl ---- voor Films en meer -------\r\n---------------------------------------------------------------[/COLOR]\r\n\r\nGeneral:\r\n\r\nComplete name                    : Robotropolis\\Robotropolis.avi\r\nFormat                           : AVI\r\nFormat/Info                      : Audio Video Interleave\r\nFile size                        : 1.54 GiB\r\nDuration                         : 1h 20mn\r\nOverall bit rate                 : 2 725 Kbps\r\n\r\nVideo:\r\n\r\nFormat                           : MPEG-4 Visual\r\nFormat profile                   : Simple@L3\r\nFormat settings, BVOP            : No\r\nFormat settings, QPel            : No\r\nFormat settings, GMC             : No warppoints\r\nFormat settings, Matrix          : Default (H.263)\r\nCodec ID                         : XVID\r\nCodec ID/Hint                    : XviD\r\nDuration                         : 1h 20mn\r\nBit rate                         : 2 266 Kbps\r\nWidth                            : 704 pixels\r\nHeight                           : 396 pixels\r\nDisplay aspect ratio             : 16:9\r\nFrame rate                       : 25.000 fps\r\nColor space                      : YUV\r\nChroma subsampling               : 4:2:0\r\nBit depth                        : 8 bits\r\nScan type                        : Progressive\r\nCompression mode                 : Lossy\r\nBits/(Pixel*Frame)               : 0.325\r\nStream size                      : 1.28 GiB (83%)\r\nWriting library                  : XviD 1.1.2 (UTC 2006-11-01)\r\n\r\nAudio:\r\n\r\nFormat                           : AC-3\r\nFormat/Info                      : Audio Coding 3\r\nMode extension                   : CM (complete main)\r\nCodec ID                         : 2000\r\nDuration                         : 1h 20mn\r\nBit rate mode                    : Constant\r\nBit rate                         : 448 Kbps\r\nChannel(s)                       : 6 channels\r\nChannel positions                : Front: L C R, Side: L R, LFE\r\nSampling rate                    : 48.0 KHz\r\nBit depth                        : 16 bits\r\nCompression mode                 : Lossy\r\nStream size                      : 259 MiB (16%)\r\nAlignment                        : Aligned on interleaves\r\nInterleave, duration             : 32 ms (0.80 video frame)\r\nInterleave, preload duration     : 512 ms
Cover/Robotropolis.jpg 70.974 KB
Cover/www.Film-Test.nl.JPG 34.175 KB
New Dutch Site.txt 117 B
Gathering some info...

Register and log in Isohunt and see no captcha anymore!

4000 symbols left
Hash 5BAC35A4401A9DFA34D56DBF8E662ABC58C0D44D

Related torrents for "Robotropolis 2011 DVDrip English Klam"

Torrent search:

dvdrip english 2011