imdb
rating

7.2
Penny Serenade

Penny Serenade (1941)

Drama, Romance

Full description
quality   x264 hd bd

Ho Sognato Un Angelo - Penny Serenade (1941)[XviD - Ita Eng Mp3 - Sub Ita] Drama [TNT Village]

Size 1.634 GB   6 seeders     Added 2012-05-07 02:59:02

Stream torrent
Starting‥ You need BitLord! Get it from BitLord.com
To download or stream you need BitLord. Visit them at BitLord.com
Ho Sognato Un Angelo - Penny Serenade (1941)[XviD - Ita Eng Mp3 - Sub Ita] Drama [TNT Village]\r\n\r\n[url=http://forum.tntvillage.scambioetico.org/index.php?showtopic=290698].: Source :.[/url]\r\n\r\n.: Plot :.\r\n\r\nWhile listening to a recording of \"Penny Serenade,\" Julie Gardiner Adams (Irene Dunne) begins reflecting on her past. \r\nRoger (Cary Grant) and Julie Adams suffer a tragedy when she miscarries in an earthquake during their trip to Japan. \r\nThey are told that she cannot have children. They request to adopt a two-year old boy, but ultimately adopt a much younger girl. \r\nThey struggle to make ends meet and to retain their parental rights when Roger loses his job. When the little girl dies suddenly, \r\nthe emotional strain threatens to destroy their marriage. Songs mark episodes in the action from records from \r\ntheir collection—the title refers to a song of the same name. In the end, they are offered the opportunity to adopt a little boy \r\nwho matches their original request, miraculously saving their marriage.\r\n\r\n\r\n.: Poster :.\r\n\r\n[img]image[/img]\r\n\r\n.: Cast and Crew :.\r\n\r\nOriginal Title: Penny Serenade\r\n\r\nDirected: George Stevens\r\n\r\nProduction : Columbia Pictures\r\n\r\nRelease Date: 24 April 1941 (USA)\r\n\r\nCast:\r\nIrene Dunne, Cary Grant, Beulah Bondi, Edgar Buchanan, \r\nAnn Doran, Wallis Clark, Leonard Willey, Walter Soderling\r\n\r\n\r\n.: Screenshot :.\r\n\r\n[img]image[/img]\r\n\r\n========================================\r\n\r\n.: Technical Data :.\r\n\r\n[b]Nome:[/b] Ho_Sognato_Un_Angelo.avi\r\n[b]Dimensione:[/b] 1.52 GiB\r\n\r\n[b][ Info generiche ][/b]\r\n\r\nFormato                                  : AVI\r\nFormat/Info                              : Audio Video Interleave\r\nDurata                                   : 1h:54mn\r\nOverall bit rate                         : 1905 Kbps\r\nWriting application                      : transcode-1.1.7\r\n\r\n\r\n[b][ Traccia video ][/b]\r\n\r\nID                                       : 0\r\nFormat                                   : MPEG-4 Visual\r\nFormat profile                           : Advanced Simple@L5\r\nFormat settings, BVOP                    : 1\r\nFormat settings, QPel                    : No\r\nFormat settings, GMC                     : No warppoints\r\nFormat settings, Matrix                  : Default (H.263)\r\nCodec ID                                 : XVID\r\nCodec ID/Hint                            : XviD\r\nDuration                                 : 1h 54mn\r\nBit rate                                 : 1634 Kbps\r\nWidth                                    : 672 pixels\r\nHeight                                   : 560 pixels\r\nDisplay aspect ratio                     : 1.272\r\nFrame rate                               : 25.000 fps\r\nColor space                              : YUV\r\nChroma subsampling                       : 4:2:0\r\nBit depth                                : 8 bits\r\nScan type                                : Progressive\r\nCompression mode                         : Lossy\r\nBits/(Pixel*Frame)                       : 0.174\r\nStream size                              : 1.30 GiB (86%)\r\nWriting library                          : XviD 64\r\n\r\n[b][ Traccia audio n.1 Ita ][/b]\r\n\r\nID                                       : 1\r\nFormat                                   : MPEG Audio\r\nFormat version                           : Version 1\r\nFormat profile                           : Layer 3\r\nMode                                     : Joint stereo\r\nMode extension                           : MS Stereo\r\nCodec ID                                 : 55\r\nCodec ID/Hint                            : MP3\r\nDuration                                 : 1h:54mn\r\nBit rate mode                            : Constant\r\nBit rate                                 : 128 Kbps\r\nChannel(s)                               : 2 channels\r\nSampling rate                            : 48.0 KHz\r\nCompression mode                         : Lossy\r\nStream size                              : 105 MiB (7%)\r\nAlignment                                : Split accross interleaves\r\nInterleave, duration                     : 40 ms (1.00 video frame)\r\nWriting library                          : LAME3.98.4\r\n\r\n[b][ Traccia audio n.2 En ][/b]\r\n\r\nID                                       : 2\r\nFormat                                   : MPEG Audio\r\nFormat version                           : Version 1\r\nFormat profile                           : Layer 3\r\nMode                                     : Joint stereo\r\nMode extension                           : MS Stereo\r\nCodec ID                                 : 55\r\nCodec ID/Hint                            : MP3\r\nDuration                                 : 1h:54mn\r\nBit rate mode                            : Constant\r\nBit rate                                 : 128 Kbps\r\nChannel(s)                               : 2 channels\r\nSampling rate                            : 48.0 KHz\r\nCompression mode                         : Lossy\r\nStream size                              : 105 MiB (7%)\r\nAlignment                                : Split accross interleaves\r\nInterleave, duration                     : 40 ms (1.00 video frame)\r\nWriting library                          : LAME3.98.4\r\n\r\n[b][ Sub ][/b]\r\n\r\nLanguage: Italiano\r\nFormat: .srt\r\n\r\n[b][ Poster ][/b]\r\n\r\nFormat: .jpg\r\nSize: 936x1419
936bfull-penny-serenade-poster.jpg 1.03 MB
Ho_Sognato_Un_Angelo.avi 1.633 GB
Ho_sognato_un_Angelo.srt 2.132 KB
Gathering some info...

Register and log in Isohunt and see no captcha anymore!

4000 symbols left
Hash 3507ED1BD22A8C5B434E46DF480F70265C3C6530

Related torrents for "Ho Sognato Un Angelo - Penny Serenade (1941)[XviD - Ita Eng Mp3 - Sub Ita] Drama [TNT Village]"

Torrent search:

italian english 1941