imdb
rating

5.6
Home of the Brave

Home of the Brave (2006)

Action, Drama

Full description

Home of the Brave 2006 DVDrip Englisch Klam

Size 1.916 GB   0 seeders     Added 2012-05-08 03:02:14

Stream torrent
Starting‥ You need BitLord! Get it from BitLord.com
To download or stream you need BitLord. Visit them at BitLord.com
[img] image[/img]\r\n\r\nWith: Samuel L. Jackson, Jessica Biel and Curtis '50 Cent' Jackson\r\n\r\nEen oorlogsdokter keert terug naar huis na enkele maanden aan het Iraakse front te hebben gezeten. Maar zijn familie, vrienden en vooral zijn vrouw, herkennen hem niet meer. Met hem keren veel soldaten terug van de strijd, ieder met zo zijn eigen problemen om weer terug te keren in de 'normale' maatschappij.\r\n\r\nThree soldiers struggle to readjust to life at home after returning home from a lengthy tour in Iraq.\r\n\r\nhttp://www.imdb.com/title/tt0763840	\r\n\r\n[COLOR=#3300FF]------------------------ Dutch Friends ------------------------\r\n---------------------------------------------------------------\r\n- Bezoek ook eens mijn vrienden op:  http://www.Film-Test.nl --\r\n----- voor mijn Nederlandse Sync. ondertitels ---- en meer ----\r\n------- http://www.Film-Test.nl ---- voor Films en meer -------\r\n---------------------------------------------------------------[/COLOR]\r\n\r\nGeneral:\r\n\r\nComplete name                    : Home of the Brave\\Home of the Brave.avi\r\nFormat                           : AVI\r\nFormat/Info                      : Audio Video Interleave\r\nFile size                        : 1.78 GiB\r\nDuration                         : 1h 42mn\r\nOverall bit rate                 : 2 501 Kbps\r\n\r\nVideo:\r\n\r\nFormat                           : MPEG-4 Visual\r\nFormat profile                   : Simple@L3\r\nFormat settings, BVOP            : No\r\nFormat settings, QPel            : No\r\nFormat settings, GMC             : No warppoints\r\nFormat settings, Matrix          : Default (H.263)\r\nCodec ID                         : XVID\r\nCodec ID/Hint                    : XviD\r\nDuration                         : 1h 42mn\r\nBit rate                         : 2 042 Kbps\r\nWidth                            : 720 pixels\r\nHeight                           : 304 pixels\r\nDisplay aspect ratio             : 2.35:1\r\nFrame rate                       : 25.000 fps\r\nColor space                      : YUV\r\nChroma subsampling               : 4:2:0\r\nBit depth                        : 8 bits\r\nScan type                        : Progressive\r\nCompression mode                 : Lossy\r\nBits/(Pixel*Frame)               : 0.373\r\nStream size                      : 1.46 GiB (82%)\r\nWriting library                  : XviD 1.1.2 (UTC 2006-11-01)\r\n\r\nAudio:\r\n\r\nFormat                           : AC-3\r\nFormat/Info                      : Audio Coding 3\r\nMode extension                   : CM (complete main)\r\nCodec ID                         : 2000\r\nDuration                         : 1h 42mn\r\nBit rate mode                    : Constant\r\nBit rate                         : 448 Kbps\r\nChannel(s)                       : 6 channels\r\nChannel positions                : Front: L C R, Side: L R, LFE\r\nSampling rate                    : 48.0 KHz\r\nBit depth                        : 16 bits\r\nCompression mode                 : Lossy\r\nStream size                      : 327 MiB (18%)\r\nAlignment                        : Aligned on interleaves\r\nInterleave, duration             : 32 ms (0.80 video frame)
Home of the Brave.avi 1.916 GB
Cover/Home of the Brave.jpg 80.985 KB
www.Film-Test.nl.JPG 34.175 KB
Gathering some info...

Register and log in Isohunt and see no captcha anymore!

4000 symbols left
Hash F3534630AAA05BFC333200505BB1FB8C5F5C61EE

Related torrents for "Home of the Brave 2006 DVDrip Englisch Klam"

Torrent search:

dvdrip 2006