imdb
rating

6.2
Dark Shadows

Dark Shadows (2012)

Comedy, Fantasy

Full description
quality   screener x264 hd bd dvdrip dvd

Dark Shadows (2012) R5 NEW LiNE XviD

Size 949.711 MB   0 seeders     Added 2012-05-08 20:19:07

Stream torrent
Starting‥ You need BitLord! Get it from 1BitLord.com
To download or stream you need BitLord. Visit them at BitLord.com
Format                           : AVI
Format/Info                      : Audio Video Interleave
Format profile                   : OpenDML
File size                        : 1.68 GiB
Duration                         : 1h 57mn
Overall bit rate                 : 2 049 Kbps
Writing application              : VirtualDubMod 1.5.10.2 (build 2542/release)
Writing library                  : VirtualDubMod build 2542/release
Original source form             : MAX TORRENTZ
Copyright                        : SIGISMUNT



Video
ID                               : 0
Format                           : MPEG-4 Visual
Format profile                   : AdvancedSimple@L5
Format settings, BVOP            : Yes
Format settings, QPel            : No
Format settings, GMC             : No warppoints
Format settings, Matrix          : Custom
Codec ID                         : XVID
Codec ID/Hint                    : XviD
Duration                         : 1h 57mn
Bit rate                         : 1 862 Kbps
Width                            : 720 pixels
Height                           : 304 pixels
Display aspect ratio             : 2.35:1
Frame rate                       : 23.976 fps
Resolution                       : 24 bits
Colorimetry                      : 4:2:0
Scan type                        : Progressive
Bits/(Pixel*Frame)               : 0.355
Stream size                      : 1.52 GiB (91%)
Writing library                  : XviD 1.2.0.dev47 (UTC 2006-11-01)



Audio
ID                               : 1
Format                           : AC-3
Format/Info                      : Audio Coding 3
Codec ID                         : 2000
Duration                         : 1h 57mn
Bit rate mode                    : Constant
Bit rate                         : 192 Kbps
Channel(s)                       : 2 channels
Channel positions                : L R
Sampling rate                    : 48.0 KHz
Stream size                      : 152 MiB (9%)
Alignment                        : Aligned on interleaves
Interleave, duration             : 68 ms (1.62 video frames)
Interleave, preload duration     : 192 ms


Plot:

An imprisoned vampire, Barnabas Collins, is set free and returns to his ancestral home, where his dysfunctional descendants are in need of his protection.


Source: DVD (perfect a/v/sync good quality,sample included)
This torrent is not seedbox supported,please seed it,


http://www.imdb.com/media/rm1541584640/tt1077368
http://www.imdb.com/media/rm1972810752/tt1077368
http://www.imdb.com/media/rm1922479104/tt1077368
Dark Shadows (2012) R5 NEW LiNE XviD/Dark Shadows (2012) R5 NEW LiNE XviD.avi 946.714 MB
Dark Shadows (2012) R5 NEW LiNE XviD/MPP-ETRG.nfo 2.875 KB
Dark Shadows (2012) R5 NEW LiNE XviD/Torrent downloaded from Demonoid.me.txt 46 B
Gathering some info...

Register and log in Isohunt and see no captcha anymore!

4000 symbols left
Hash 5022cfd1bd6888b2fc3a4ed9f434204231351cac

Related torrents for "Dark Shadows (2012) R5 NEW LiNE XviD"

Torrent search:

2012 dvd