imdb
rating

6.1
Lockout

Lockout (2012)

Action, Science Fiction, Thriller

Full description

Lockout (2012) DVDRip XviD-SPARKS

Size 855.339 MB   0 seeders     Added 2012-05-08 21:14:38

Stream torrent
Starting‥ You need BitLord! Get it from BitLord.com
To download or stream you need BitLord. Visit them at BitLord.com
Format                           : AVI
Format/Info                      : Audio Video Interleave
Format profile                   : OpenDML
File size                        : 1.68 GiB
Duration                         : 1h 57mn
Overall bit rate                 : 2 049 Kbps
Writing application              : VirtualDubMod 1.5.10.2 (build 2542/release)
Writing library                  : VirtualDubMod build 2542/release
Original source form             : MAX TORRENTZ
Copyright                        : SIGISMUNT



Video
ID                               : 0
Format                           : MPEG-4 Visual
Format profile                   : AdvancedSimple@L5
Format settings, BVOP            : Yes
Format settings, QPel            : No
Format settings, GMC             : No warppoints
Format settings, Matrix          : Custom
Codec ID                         : XVID
Codec ID/Hint                    : XviD
Duration                         : 1h 57mn
Bit rate                         : 1 862 Kbps
Width                            : 720 pixels
Height                           : 304 pixels
Display aspect ratio             : 2.35:1
Frame rate                       : 23.976 fps
Resolution                       : 24 bits
Colorimetry                      : 4:2:0
Scan type                        : Progressive
Bits/(Pixel*Frame)               : 0.355
Stream size                      : 1.52 GiB (91%)
Writing library                  : XviD 1.2.0.dev47 (UTC 2006-11-01)



Audio
ID                               : 1
Format                           : AC-3
Format/Info                      : Audio Coding 3
Codec ID                         : 2000
Duration                         : 1h 57mn
Bit rate mode                    : Constant
Bit rate                         : 192 Kbps
Channel(s)                       : 2 channels
Channel positions                : L R
Sampling rate                    : 48.0 KHz
Stream size                      : 152 MiB (9%)
Alignment                        : Aligned on interleaves
Interleave, duration             : 68 ms (1.62 video frames)
Interleave, preload duration     : 192 ms


Plot:

A man wrongly convicted of conspiracy to commit espionage against the U.S. is offered his freedom if he can rescue the president\'s daughter from an outer space prison taken over by violent inmates.


Source: DVD (perfect a/v/sync good quality,sample included)
This torrent is not seedbox supported,please seed it,

http://www.imdb.com/media/rm861386240/tt1592525
http://www.imdb.com/media/rm3670521344/tt1592525
http://www.imdb.com/media/rm3653744128/tt1592525
Lockout (2012) DVDRip XviD-SPARKS/Lockout (2012) DVDRip XviD-SPARKS.avi 852.342 MB
Lockout (2012) DVDRip XviD-SPARKS/MPP-ETRG.nfo 2.875 KB
Lockout (2012) DVDRip XviD-SPARKS/Torrent downloaded from Demonoid.me.txt 46 B
Gathering some info...

Register and log in Isohunt and see no captcha anymore!

4000 symbols left
Hash 026994fec504a7f14a5ab97aa490de47c03b9e5c

Related torrents for "Lockout (2012) DVDRip XviD-SPARKS"

Torrent search:

dvdrip 2012