imdb
rating

6.4
The Raven

The Raven (2012)

Thriller

Full description
quality   x264 hd bd dvdr dvdrip cam

The Raven (2012) DVDRip XviD-NeDiVx

Size 863.728 MB   0 seeders     Added 2012-05-08 22:10:56

Stream torrent
Starting‥ You need BitLord! Get it from BitLord.com
To download or stream you need BitLord. Visit them at BitLord.com
Format                           : AVI
Format/Info                      : Audio Video Interleave
Format profile                   : OpenDML
File size                        : 1.68 GiB
Duration                         : 1h 57mn
Overall bit rate                 : 2 049 Kbps
Writing application              : VirtualDubMod 1.5.10.2 (build 2542/release)
Writing library                  : VirtualDubMod build 2542/release
Original source form             : MAX TORRENTZ
Copyright                        : SIGISMUNT



Video
ID                               : 0
Format                           : MPEG-4 Visual
Format profile                   : AdvancedSimple@L5
Format settings, BVOP            : Yes
Format settings, QPel            : No
Format settings, GMC             : No warppoints
Format settings, Matrix          : Custom
Codec ID                         : XVID
Codec ID/Hint                    : XviD
Duration                         : 1h 57mn
Bit rate                         : 1 862 Kbps
Width                            : 720 pixels
Height                           : 304 pixels
Display aspect ratio             : 2.35:1
Frame rate                       : 23.976 fps
Resolution                       : 24 bits
Colorimetry                      : 4:2:0
Scan type                        : Progressive
Bits/(Pixel*Frame)               : 0.355
Stream size                      : 1.52 GiB (91%)
Writing library                  : XviD 1.2.0.dev47 (UTC 2006-11-01)



Audio
ID                               : 1
Format                           : AC-3
Format/Info                      : Audio Coding 3
Codec ID                         : 2000
Duration                         : 1h 57mn
Bit rate mode                    : Constant
Bit rate                         : 192 Kbps
Channel(s)                       : 2 channels
Channel positions                : L R
Sampling rate                    : 48.0 KHz
Stream size                      : 152 MiB (9%)
Alignment                        : Aligned on interleaves
Interleave, duration             : 68 ms (1.62 video frames)
Interleave, preload duration     : 192 ms


Plot:

When a madman begins committing horrific murders inspired by Edgar Allan Poe\'s works, a young Baltimore detective joins forces with Poe to stop him from making his stories a reality.


Source: DVD (perfect a/v/sync good quality,sample included)
This torrent is not seedbox supported,please seed it,


http://www.imdb.com/media/rm1679537920/tt1486192
http://www.imdb.com/media/rm3458842112/tt1486192
http://www.imdb.com/media/rm2593636096/tt1486192
The Raven (2012) DVDRip XviD-NeDiVx/MPP-ETRG.nfo 2.875 KB
The Raven (2012) DVDRip XviD-NeDiVx/The Raven (2012) DVDRip XviD-NeDiVx.avi 860.73 MB
The Raven (2012) DVDRip XviD-NeDiVx/Torrent downloaded from Demonoid.me.txt 46 B
Gathering some info...

Register and log in Isohunt and see no captcha anymore!

4000 symbols left
Hash 62b5195b9aaba0ec32343ff9c6c391c2c83c3bf1

Related torrents for "The Raven (2012) DVDRip XviD-NeDiVx"

Torrent search:

dvdrip 2012