La damigella d\'onore (La demoiselle d\'honneur, La demoiselle d\'honneur, 2004) [H264 Ita Fra Ac3 Ita Sub][TNTVILLAGE]

Size 1.507 GB   2 seeders     Added 2012-05-09 07:13:48

Stream torrent
Starting‥ You need BitLord! Get it from 1BitLord.com
To download or stream you need BitLord. Visit them at BitLord.com
[align=center]

[b][color=red]La damigella d'onore (Claude Chabrol, 2004)[/b][/color]

[url=http://postimage.org/image/8vfhvatwn/][img=http://s7.postimage.org/8vfhvatwn/la_locandina_italiana_di_la_damigella_da_onore_1.jpg][/url]

[b][url=http://www.imdb.com/title/tt0405866/]IMDB link[/url][/b]
[/align]



[b][color=red].: Info :.[/color][/b]
[b]Regia / Director:[/b] Claude Chabrol
[b]Sceneggiatore / written by:[/b] Claude Chabrol, Pierre Leccia, Ruth Rendell (novel)
[b]Titolo originale / Original Title:[/b] La demoiselle d'honneur
[b]Also Known as:[/b]
La damigella d'onore (Italy)
Die Brautjungfer (Germany)
The Bridesmaid (English international title)
[b]Anno / Year:[/b] 2004
[b]Durata / Runtime:[/b]105'
[b]Genere / Genre:[/b]Thriller | Drama | Romance
[b]Color|b/w:[/b] Color
[b]Cast:[/b]
Benoît Magimel 	... 	Philippe Tardieu
Laura Smet 	... 	Stéphanie "Senta" Bellange
Aurore Clément 	... 	Christine
Bernard Le Coq 	... 	Gérard Courtois


[b]Languages:[/b]italiano, français
[b]Subtitles:[/b]italiano


[b][color=red].: Screenshots :.[/color][/b]
[url=http://postimage.org/image/bhyonahuz/][img]image[/img][/url][url=http://postimage.org/image/frm8rqqcn/][img]image[/img][/url][url=http://postimage.org/image/d1utu7bhn/][img]image[/img][/url][url=http://postimage.org/image/vaicw0ay9/][img]image[/img][/url]
[url=http://postimage.org/image/9v4voddub/][img]image[/img][/url][url=http://postimage.org/image/ml545rc91/][img]image[/img][/url][url=http://postimage.org/image/4d0du5r0t/][img]image[/img][/url][url=http://postimage.org/image/va7gs0i6z/][img]image[/img][/url]


[b][color=red].: Plot & Review :.[/color][/b]
The master of French suspense joins forces with the queen of English suspense fiction for this tense tale of the treacherous love affair between a disturbed bridesmaid and an unsuspecting young man. Philippe (Benoit Magimel) lives in a quiet French town with his hairdresser mother Christine (Aurore Clément) and two younger sisters. Soon after the news breaks about a local girl who has mysteriously vanished, Philippe's mother introduces her children to Gerard (Bernard Le Coq) -- a local businessman who may have matrimonial intentions toward the attractive beautician. Soon after receiving permission from her children to present Gerard with a sculpture of a woman's head that had previously adorned the family garden, however, the elusive beau seems to disappear without a trace. Philippe is intent on recovering the captivating piece of art, and after stealthily recovering it in a clandestine mission he places it in his closet without telling the rest of the family. Later, at his sister's wedding, Philippe meets attractive bridesmaid Senta (Laura Smet) and passion between the pair quickly ignites during a stormy seduction. A model and aspiring actress who lives alone in a massive villa inherited from her father, sultry Senta may be physically irresistible, yet she also seems to have a few morbid preconceptions about life, love, and death. As the affair between the pair grows increasingly heated, Philippe at first takes her request to murder a stranger as a means of proving his love as a joke. The more he gets to know her the more that it appears that Senta is in fact deadly serious about her dark request.
(Jason Buchanan, Rovi, from rottentomatoes.com)


[b][color=red].: Critica e Sinossi :.[/color][/b]
Affascinato dalle donne tutte cioccolata e arsenico, maniaco del dettaglio narrativo, della sottigliezza descrittiva e della geometria di messinscena, Chabrol s’insinua per i dialoghi, i caratteri e gli ambienti.
II male è sottile e subdolo, ben celato sotto dinamiche di relazioni apparentemente normali ed abitazioni piene di calore; ancora una volta la "deviazione" è femmina, bella e problematica, sempre e comunque estremamente affascinante. I movimenti di macchina avvolgono i visi dei protagonisti e guidano lo spettatore attraverso una suspence mascherata e velata come gli atteggiamenti propri dei personaggi, per un thriller in cui fondamentalmente non accade "nulla di nuovo" fino alla fine, ma la cui atmosfera riesce ad essere comunque densa di attesa. Un lavoro di "routine" tra le righe della consueta eleganza stilistica in bilico tra Hitchcock e Rivette.
Fulcro del giallo borghese finisce per essere tutto ciò che si trasforma e tutto quello che sfugge alla ragione, il punto estremo in cui la razionalità umana perde di logica. Tematica quest’ultima da sempre al centro delle pellicole di Claude Chabrol; indagatore della psiche umana alla ricerca della raffigurazione di casi estremi a suo dire estremamente più esaustivi.
Presentato in concorso a Venezia 2004.
(di Andrea Olivieri, da cinemadelsilenzio.it)

[b][color=red].: [URL=http://mediainfo.sourceforge.net]Mediainfo[/URL] report:.[/color][/b]
General
Unique ID                                : 312719320999682832603247167460946252510 (0xEB438CEA4D7489483C2589E0184892DE)
Complete name                            : /DATI/temp/Chabrol,Claude - La damigella d'onore (La demoiselle d'honneur, 2004).mkv
Format                                   : Matroska
Format version                           : Version 2
File size                                : 1.40 GiB
Duration                                 : 1h 45mn
Overall bit rate                         : 1 897 Kbps
Writing application                      : HandBrake 0.9.6
Writing library                          : libmkv 0.6.5

Video
ID                                       : 1
Format                                   : AVC
Format/Info                              : Advanced Video Codec
Format profile                           : High@L3.1
Format settings, CABAC                   : Yes
Format settings, ReFrames                : 4 frames
Codec ID                                 : V_MPEG4/ISO/AVC
Duration                                 : 1h 45mn
Bit rate                                 : 1 500 Kbps
Width                                    : 720 pixels
Height                                   : 608 pixels
Display aspect ratio                     : 1.668
Original display aspect ratio            : 1.669
Frame rate mode                          : Variable
Frame rate                               : 25.000 fps
Color space                              : YUV
Chroma subsampling                       : 4:2:0
Bit depth                                : 8 bits
Scan type                                : Progressive
Bits/(Pixel*Frame)                       : 0.137
Stream size                              : 1.09 GiB (78%)
Writing library                          : x264 core 120
Encoding settings                        : cabac=1 / ref=3 / deblock=1:0:0 / analyse=0x3:0x113 / me=umh / subme=9 / psy=1 / psy_rd=1.00:0.00 / mixed_ref=1 / me_range=16 / chroma_me=1 / trellis=1 / 8x8dct=1 / cqm=0 / deadzone=21,11 / fast_pskip=1 / chroma_qp_offset=-2 / threads=3 / sliced_threads=0 / nr=0 / decimate=1 / interlaced=0 / bluray_compat=0 / constrained_intra=0 / bframes=3 / b_pyramid=2 / b_adapt=2 / b_bias=0 / direct=1 / weightb=1 / open_gop=0 / weightp=2 / keyint=250 / keyint_min=25 / scenecut=40 / intra_refresh=0 / rc_lookahead=50 / rc=2pass / mbtree=1 / bitrate=1500 / ratetol=1.0 / qcomp=0.60 / qpmin=3 / qpmax=69 / qpstep=4 / cplxblur=20.0 / qblur=0.5 / ip_ratio=1.40 / aq=1:1.00
Language                                 : English
Color primaries                          : BT.601-6 525, BT.1358 525, BT.1700 NTSC, SMPTE 170M
Transfer characteristics                 : BT.709-5, BT.1361
Matrix coefficients                      : BT.601-6 525, BT.1358 525, BT.1700 NTSC, SMPTE 170M

Audio #1
ID                                       : 2
Format                                   : AC-3
Format/Info                              : Audio Coding 3
Mode extension                           : CM (complete main)
Codec ID                                 : A_AC3
Duration                                 : 1h 45mn
Bit rate mode                            : Constant
Bit rate                                 : 192 Kbps
Channel(s)                               : 2 channels
Channel positions                        : Front: L R
Sampling rate                            : 48.0 KHz
Bit depth                                : 16 bits
Compression mode                         : Lossy
Stream size                              : 145 MiB (10%)
Language                                 : French

Audio #2
ID                                       : 3
Format                                   : AC-3
Format/Info                              : Audio Coding 3
Mode extension                           : CM (complete main)
Codec ID                                 : A_AC3
Duration                                 : 1h 45mn
Bit rate mode                            : Constant
Bit rate                                 : 192 Kbps
Channel(s)                               : 2 channels
Channel positions                        : Front: L R
Sampling rate                            : 48.0 KHz
Bit depth                                : 16 bits
Compression mode                         : Lossy
Stream size                              : 145 MiB (10%)
Language                                 : Italian

Text #1
ID                                       : 4
Format                                   : VobSub
Codec ID                                 : S_VOBSUB
Codec ID/Info                            : The same subtitle format used on DVDs
Language                                 : Italian

Text #2
ID                                       : 5
Format                                   : VobSub
Codec ID                                 : S_VOBSUB
Codec ID/Info                            : The same subtitle format used on DVDs

Menu
00:00:00.000                             : Chapter 1
00:12:27.680                             : Chapter 2
00:20:00.680                             : Chapter 3
00:28:35.480                             : Chapter 4
00:36:49.280                             : Chapter 5
00:45:03.080                             : Chapter 6
00:55:14.480                             : Chapter 7
01:08:06.080                             : Chapter 8
01:16:49.880                             : Chapter 9
01:28:54.080                             : Chapter 10
01:35:25.880                             : Chapter 11
01:42:59.480                             : Chapter 12



[b][color=red].: Ringraziamenti :.[/color][/b]
* chi ha fatto il film
* chi ha fatto il dvd
* chi ha scritto trame e recensioni 
* postimage per l'hosting delle immagini


Orario di seed e Banda disponibile: 4/7 - ~24/24  --> 20++ Kbps
D4M1G3114.mkv 1.507 GB
Gathering some info...

Register and log in Isohunt and see no captcha anymore!

4000 symbols left
Hash 71a9c4b1d2b31e4bcc2c60d761d4364f2c70a2c0