Marisa Monte - Infinito Particolar

Size 233.297 MB   13 seeders     Added 2012-05-10 01:35:46

Stream torrent
Starting‥ You need BitLord! Get it from BitLord.com
10
To download or stream you need BitLord. Visit them at BitLord.com
[img]image[/img]

[img]image[/img]

[img]image[/img]

[img]image[/img]

[b]Artist: Marisa Monte 
Title Of Album: Infinito Particular
Etichetta: Emi 
Pubblicazione: 2006 
Genre: Pop d'autore
Source: CD
Playing Time: 39.02
Total Size: 222,35 MB
Quality: FLAC+Cue+Log+Info+Cover[Front + Back + CD]
Bitrate: Lossless[/b]

[img]image[/img]

[b]1. Infinito particular - 4:09
2. Vilarejo - 3:27
3. Pra ser sincero - 2:54
4. Levante - 2:30
5. Aquela - 2:49
6. A primeira pedra - 2:53
7. O rio - 2:38
8. Gerânio - 2:49
9. Quem Foi - 2:38
10. Pernambucobucolismo - 2:53
11. Aconteceu - 3:05
12. Até parece - 2:22
13. Pelo tempo que durar - 3:27[/b]

[img]image[/img]

Infinito Particular is a contemporary pop record on which Monte returned to various unrecorded songs from over the course of her 15 years of songwriting. The albums, which were released in Brazil this Spring and have already sold platinum, feature an impressive array of guest collaborators as well, including David Byrne, Philip Glass, Seu Jorge, Carlinhos Brown and Arnaldo Antunes.

[img]image[img]

[quote]Exact Audio Copy V1.0 beta 3 from 29. August 2011

EAC extraction logfile from 8. May 2012, 9:32

Marisa Monte / Infinito Particular

Used drive  : HL-DT-STDVDRAM GSA-T40N   Adapter: 0  ID: 0

Read mode               : Secure
Utilize accurate stream : Yes
Defeat audio cache      : Yes
Make use of C2 pointers : No

Read offset correction                      : 667
Overread into Lead-In and Lead-Out          : No
Fill up missing offset samples with silence : Yes
Delete leading and trailing silent blocks   : No
Null samples used in CRC calculations       : Yes
Used interface                              : Native Win32 interface for Win NT & 2000
Gap handling                                : Appended to previous track

Used output format              : User Defined Encoder
Selected bitrate                : 896 kBit/s
Quality                         : High
Add ID3 tag                     : No
Command line compressor         : C:\Program Files\Exact Audio Copy\FLAC\FLAC.EXE
Additional command line options : -8 -V -T "ARTIST=%artist%" -T "TITLE=%title%" -T "ALBUM=%albumtitle%" -T "DATE=%year%" -T "TRACKNUMBER=%tracknr%" -T "GENRE=%genre%" -T "COMMENT=%comment%" -T "BAND=%albuminterpret%" -T "ALBUMARTIST=%albuminterpret%" -T "COMPOSER=%composer%" %haslyrics%--tag-from-file=LYRICS="%lyricsfile%"%haslyrics% -T "DISCNUMBER=%cdnumber%" -T "TOTALDISCS=%totalcds%" -T "TOTALTRACKS=%numtracks%" %hascover%--picture="%coverfile%"%hascover% %source% -o %dest%


TOC of the extracted CD

     Track |   Start  |  Length  | Start sector | End sector 
    ---------------------------------------------------------
        1  |  0:00.00 |  4:11.52 |         0    |    18876   
        2  |  4:11.52 |  3:29.41 |     18877    |    34592   
        3  |  7:41.18 |  2:54.68 |     34593    |    47710   
        4  | 10:36.11 |  2:31.74 |     47711    |    59109   
        5  | 13:08.10 |  2:51.37 |     59110    |    71971   
        6  | 15:59.47 |  2:54.68 |     71972    |    85089   
        7  | 18:54.40 |  2:39.48 |     85090    |    97062   
        8  | 21:34.13 |  2:53.04 |     97063    |   110041   
        9  | 24:27.17 |  2:40.34 |    110042    |   122075   
       10  | 27:07.51 |  2:54.32 |    122076    |   135157   
       11  | 30:02.08 |  3:06.21 |    135158    |   149128   
       12  | 33:08.29 |  2:25.50 |    149129    |   160053   
       13  | 35:34.04 |  3:28.54 |    160054    |   175707   


Track  1

     Filename H:\Marisa Monte - Infinito Particolar\(1) Infinito Particular - Marisa Monte.flac

     Pre-gap length  0:00:02.00

     Peak level 98.8 %
     Extraction speed 2.2 X
     Track quality 100.0 %
     Test CRC 26C91911
     Copy CRC 26C91911
     Track not present in AccurateRip database
     Copy OK

Track  2

     Filename H:\Marisa Monte - Infinito Particolar\(2) Vilarejo - Marisa Monte.flac

     Pre-gap length  0:00:02.00

     Peak level 98.8 %
     Extraction speed 2.3 X
     Track quality 100.0 %
     Test CRC 562A3C16
     Copy CRC 562A3C16
     Track not present in AccurateRip database
     Copy OK

Track  3

     Filename H:\Marisa Monte - Infinito Particolar\(3) Pra Ser Sincero - Marisa Monte.flac

     Pre-gap length  0:00:01.49

     Peak level 98.8 %
     Extraction speed 2.4 X
     Track quality 100.0 %
     Test CRC 68A85617
     Copy CRC 68A85617
     Track not present in AccurateRip database
     Copy OK

Track  4

     Filename H:\Marisa Monte - Infinito Particolar\(4) Levante - Marisa Monte.flac

     Peak level 98.8 %
     Extraction speed 2.5 X
     Track quality 100.0 %
     Test CRC A7675EE5
     Copy CRC A7675EE5
     Track not present in AccurateRip database
     Copy OK

Track  5

     Filename H:\Marisa Monte - Infinito Particolar\(5) Aquela - Marisa Monte.flac

     Pre-gap length  0:00:01.13

     Peak level 98.8 %
     Extraction speed 2.6 X
     Track quality 100.0 %
     Test CRC 8BBD6AB6
     Copy CRC 8BBD6AB6
     Track not present in AccurateRip database
     Copy OK

Track  6

     Filename H:\Marisa Monte - Infinito Particolar\(6) A Primeira Pedra - Marisa Monte.flac

     Pre-gap length  0:00:01.00

     Peak level 98.8 %
     Extraction speed 2.7 X
     Track quality 100.0 %
     Test CRC 28B661DD
     Copy CRC 28B661DD
     Track not present in AccurateRip database
     Copy OK

Track  7

     Filename H:\Marisa Monte - Infinito Particolar\(7) O Rio - Marisa Monte.flac

     Pre-gap length  0:00:00.68

     Peak level 98.8 %
     Extraction speed 2.8 X
     Track quality 100.0 %
     Test CRC CBFF5350
     Copy CRC CBFF5350
     Track not present in AccurateRip database
     Copy OK

Track  8

     Filename H:\Marisa Monte - Infinito Particolar\(8) Ger nio - Marisa Monte.flac

     Pre-gap length  0:00:01.46

     Peak level 98.8 %
     Extraction speed 3.0 X
     Track quality 100.0 %
     Test CRC 56FE8849
     Copy CRC 56FE8849
     Track not present in AccurateRip database
     Copy OK

Track  9

     Filename H:\Marisa Monte - Infinito Particolar\(9) Quem Foi - Marisa Monte.flac

     Pre-gap length  0:00:01.46

     Peak level 98.8 %
     Extraction speed 3.0 X
     Track quality 100.0 %
     Test CRC E763E666
     Copy CRC E763E666
     Track not present in AccurateRip database
     Copy OK

Track 10

     Filename H:\Marisa Monte - Infinito Particolar\(10) Pernambucolismo - Marisa Monte.flac

     Pre-gap length  0:00:01.65

     Peak level 98.8 %
     Extraction speed 3.2 X
     Track quality 100.0 %
     Test CRC 0C69BE99
     Copy CRC 0C69BE99
     Track not present in AccurateRip database
     Copy OK

Track 11

     Filename H:\Marisa Monte - Infinito Particolar\(11) Aconteceu - Marisa Monte.flac

     Pre-gap length  0:00:00.65

     Peak level 98.8 %
     Extraction speed 2.7 X
     Track quality 99.9 %
     Test CRC A6B142A6
     Copy CRC A6B142A6
     Track not present in AccurateRip database
     Copy OK

Track 12

     Filename H:\Marisa Monte - Infinito Particolar\(12) At  Parece - Marisa Monte.flac

     Pre-gap length  0:00:00.12

     Peak level 98.8 %
     Extraction speed 3.2 X
     Track quality 100.0 %
     Test CRC 0D2FC1C3
     Copy CRC 0D2FC1C3
     Track not present in AccurateRip database
     Copy OK

Track 13

     Filename H:\Marisa Monte - Infinito Particolar\(13) Pelo Tempo Que Durar - Marisa Monte.flac

     Pre-gap length  0:00:01.65

     Peak level 98.8 %
     Extraction speed 3.5 X
     Track quality 100.0 %
     Test CRC 3C7C3826
     Copy CRC 3C7C3826
     Track not present in AccurateRip database
     Copy OK


None of the tracks are present in the AccurateRip database

No errors occurred

End of status report

==== Log checksum A3FB0A20DE7D0DA58E590CD8A9B9C4DBE30A4099E1FA91163D7F4FECE7736D97 ====[/quote]

[img]image[/img]
[img]image[/img]
Folder/DSC00808.gif 58.672 KB
Folder/Marisa_Monte-Infinito_Particular-Frontal.jpg 12.872 KB
Folder/Marisa_Monte-Infinito_Particular-Trasera.jpg 54.63 KB
Gathering some info...

Register and log in Isohunt and see no captcha anymore!

4000 symbols left
Hash 67053BEA883A1A8E706B8A9E706D965131D1DE52