imdb
rating

7.0
Get the Gringo

Get the Gringo (2012)

Action, Crime, Drama, Thriller

Full description
quality   telesync dvdrip hdtv hd dvd

Get the Gringo 2012 DVDRiP XViD AC3

Size 1.371 GB   0 seeders     Added 2012-05-13 03:05:05

Stream torrent
Starting‥ You need BitLord! Get it from 1BitLord.com
10
To download or stream you need BitLord. Visit them at BitLord.com
[img]image[/img]\r\n\r\nFormat : AVI\r\nFormat/Info : Audio Video Interleave\r\nFile size : 1.28 GiB\r\nDuration : 1h 35mn\r\nOverall bit rate : 1 907 Kbps\r\nWriting application : FairUse Wizard - http://fairusewizard.com\r\nWriting library : VirtualDub build 32842/release\r\nVideo\r\nID : 0\r\nFormat : MPEG-4 Visual\r\nFormat profile : Advanced Simple@L5\r\nFormat settings, BVOP : 2\r\nFormat settings, QPel : No\r\nFormat settings, GMC : No warppoints\r\nFormat settings, Matrix : Default (H.263)\r\nMuxing mode : Packed bitstream\r\nCodec ID : XVID\r\nCodec ID/Hint : XviD\r\nDuration : 1h 35mn\r\nBit rate : 1 770 Kbps\r\nWidth : 704 pixels\r\nHeight : 384 pixels\r\nDisplay aspect ratio : 16:9\r\nFrame rate : 23.976 fps\r\nColor space : YUV\r\nChroma subsampling : 4:2:0\r\nBit depth : 8 bits\r\nScan type : Progressive\r\nCompression mode : Lossy\r\nBits/(Pixel*Frame) : 0.273\r\nStream size : 1.19 GiB (93%)\r\nWriting library : XviD 1.2.1 (UTC 2008-12-04)\r\nAudio\r\nID : 1\r\nFormat : AC-3\r\nFormat/Info : Audio Coding 3\r\nMode extension : CM (complete main)\r\nCodec ID : 2000\r\nDuration : 1h 35mn\r\nBit rate mode : Constant\r\nBit rate : 128 Kbps\r\nChannel(s) : 2 channels\r\nChannel positions : Front: L R\r\nSampling rate : 48.0 KHz\r\nBit depth : 16 bits\r\nCompression mode : Lossy\r\nStream size : 87.9 MiB (7%)\r\nAlignment : Aligned on interleaves\r\nInterleave, duration : 42 ms (1.00 video frame)\r\nInterleave, preload duration : 512 ms \r\n\r\n[img]image[/img]
AwesomeHack.URL 61 B
Get the Gringo 2012 DVDRiP.XViD.AC3 .str 13 B
Get the Gringo 2012 DVDRiP.XViD.AC3.avi 1.371 GB
Gathering some info...

Register and log in Isohunt and see no captcha anymore!

4000 symbols left
Hash AC75F6AF30C9DE57DCC0E9D53B9A9A76B9635994

Related torrents for "Get the Gringo 2012 DVDRiP XViD AC3"

Torrent search:

dvdrip 2012