imdb
rating

3.9
Underground

Underground (2011)

Horror

Full description
quality   dvdrip h264 x264 hd bd fullhd

Underground 2011 DVDrip English Klam

Size 1.405 GB   0 seeders     Added 2012-05-14 02:55:04

Stream torrent
Starting‥ You need BitLord! Get it from 1BitLord.com
10
To download or stream you need BitLord. Visit them at BitLord.com
[img] image[/img]\r\n\r\nWith: Sofia Pernas, Adrian R'Mante and Eric Abercrombie\r\n\r\nWanneer een trouwe vriendenclub tijdens een rave-party in een loods in aanraking komt met een agressieve straatbende, vluchten de vrienden in een merkwaardig tunnelsysteem dat zich onder het gebouw bevindt. Wanneer ze ervan overtuigd zijn in veiligheid te verkeren, trachten ze een andere uitgang uit het labyrint te vinden om aan hun beulen te ontsnappen. Maar blijkbaar zijn ze onder de grond niet alleen.\r\n\r\nA group of friends fight for their lives against the lethal and ravenous creatures lurking beneath the Earth's surface...\r\n\r\nhttp://www.imdb.com/title/tt1811371\r\n\r\n[COLOR=#3300FF]------------------------ Dutch Friends ------------------------\r\n---------------------------------------------------------------\r\n- Bezoek ook eens mijn vrienden op:  http://www.Film-Test.nl --\r\n----- voor mijn Nederlandse Sync. ondertitels ---- en meer ----\r\n------- http://www.Film-Test.nl ---- voor Films en meer -------\r\n---------------------------------------------------------------[/COLOR]\r\n\r\nGeneral:\r\n\r\nComplete name                    : Underground\\Underground.avi\r\nFormat                           : AVI\r\nFormat/Info                      : Audio Video Interleave\r\nFile size                        : 1.31 GiB\r\nDuration                         : 1h 26mn\r\nOverall bit rate                 : 2 160 Kbps\r\n\r\nVideo:\r\n\r\nFormat                           : MPEG-4 Visual\r\nFormat profile                   : Simple@L3\r\nFormat settings, BVOP            : No\r\nFormat settings, QPel            : No\r\nFormat settings, GMC             : No warppoints\r\nFormat settings, Matrix          : Default (H.263)\r\nCodec ID                         : XVID\r\nCodec ID/Hint                    : XviD\r\nDuration                         : 1h 26mn\r\nBit rate                         : 1 701 Kbps\r\nWidth                            : 652 pixels\r\nHeight                           : 352 pixels\r\nDisplay aspect ratio             : 1.852\r\nFrame rate                       : 25.000 fps\r\nColor space                      : YUV\r\nChroma subsampling               : 4:2:0\r\nBit depth                        : 8 bits\r\nScan type                        : Progressive\r\nCompression mode                 : Lossy\r\nBits/(Pixel*Frame)               : 0.296\r\nStream size                      : 1.03 GiB (79%)\r\nWriting library                  : XviD 1.1.2 (UTC 2006-11-01)\r\n\r\nAudio:\r\n\r\nFormat                           : AC-3\r\nFormat/Info                      : Audio Coding 3\r\nMode extension                   : CM (complete main)\r\nCodec ID                         : 2000\r\nDuration                         : 1h 26mn\r\nBit rate mode                    : Constant\r\nBit rate                         : 448 Kbps\r\nChannel(s)                       : 6 channels\r\nChannel positions                : Front: L C R, Side: L R, LFE\r\nSampling rate                    : 48.0 KHz\r\nBit depth                        : 16 bits\r\nCompression mode                 : Lossy\r\nStream size                      : 278 MiB (21%)\r\nAlignment                        : Aligned on interleaves\r\nInterleave, duration             : 32 ms (0.80 video frame)\r\nInterleave, preload duration     : 352 ms
Cover/Underground.jpg 204.605 KB
Cover/www.Film-Test.nl.JPG 36.286 KB
New Dutch Site.txt 117 B
Gathering some info...

Register and log in Isohunt and see no captcha anymore!

4000 symbols left
Hash E63E4FEFF88DB34878A8002E9D14D9C0F72B0867

Related torrents for "Underground 2011 DVDrip English Klam"

Torrent search:

dvdrip english 2011